你所知道的4K资源这里全部都有 4K电影 | 4K视频 | 4K壁纸 | 4K MV 怎么播放4K视频 | 4K电视演示片

教你玩转4K私人与家庭影院存储 NAS组装 | 黑群辉 家庭/影院Nas论坛

4K家庭影院信号源与视频设备知识 4K蓝光高清播放机 - 那个品牌好? 4K投影机论坛 | 4K电视机论坛

手把手教你搭建属于自己的家庭影院 4K家庭影院案例 | 家庭影院音频 4K家庭影院论坛

查看: 176|回复: 1

[喜剧片] 家族之苦2/麻烦家族2 What.a.Wonderful.Family.2.2017.JAPANESE.1080p.BluRay.REMUX.AVC.TrueHD.5.1-FGT 19.16GB

[复制链接]

 成长值: 1670

级别:资源管理组

注册时间
2017-10-20
最后登录
2019-6-25
听众
0
收听
0
主题
78745
蓝光币
28946 枚
贡献
3070 点
发表于 2018-11-26 22:45:06 | 显示全部楼层 |阅读模式

家属之苦2/麻烦家属2 What.a.Wonderful.Family.2.2017.JAPANESE.1080p.BluRay.REMUX.AVC.TrueHD.5.1-FGT 19.16GB-1.jpg
◎译  名 家属之苦2 / 麻烦家属2(港) / 家属真命苦2(台) / Kazoku wa tsuraiyo 2 / What a Wonderful Family! 2
◎片  名 家属之苦2 家属はつらいよ2
◎年  代 2017
◎国  家 日本
◎类  别 笑剧 / 家庭
◎语  言 日语
◎上映日期 2017-02-10(日本赞岐电影节) / 2017-05-27(日本)
◎IMDb评分  7.1/10 from 290 users
◎IMDb链接  http://www.imdb.com/title/tt5934564/
◎豆瓣评分 8.4/10 from 17786 users
◎豆瓣链接 https://movie.douban.com/subject/26848504/
◎片  长 113分钟
◎导  演 山田洋次
◎主  演 桥爪功
      吉行和子
      西村雅彦
      夏川结衣
      中岛朋子
      林家正蔵
      妻夫木聪
      苍井优
      小林稔侍
      风吹淳
      中村鹰之资
      丸山步梦
      有园芳记
      藤山扇治郎
      徳永雄辉
      剧团一人
      笑福亭鹤瓶
      广冈由里子
      北山雅康
      近藤公园

◎简  介 

  在平田周造(桥爪功 饰)与妻子富子(吉行和子 饰)闹仳离后的数年,长男幸之助佳耦担忧高龄者的危险驾驶,计划让爸爸周造还掉自己的驾照,但是固执的周造偏不还,让平田家属里再次蒙上不安的空气。某日,周造与居酒屋女老板和开车回到故乡广岛的同级生丸田吟平偶遇,丸田已经酿成落漠的孤 寡老人,周造构造了场同学集会想法让丸田过得欢畅,丸田在感动之余倾吐了他这些年的遭受,当晚在睡梦中离世。……

◎获奖情况 

  第41届日本电影学院奖 (2018)
  最好编剧(提名) 山田洋次 /  平松惠美子
  最好女配角(提名) 夏川结衣
  最好摄影(提名) 近森真史
  最好美术指导(提名) 仓田智子 /  小林久之
  最好照明(提名) 渡边孝一
  最好录音(提名) 岸田和美
  最好剪辑(提名) 石井岩

  第4届豆瓣电影年度榜单 (2017)
  评分最高的日本电影(提名)


  1. Video
  2. ID                                       : 1
  3. Format                                   : AVC
  4. Format/Info                              : Advanced Video Codec
  5. Format profile                           : [url=/cdn-cgi/l/email-protection][email protected][/url]
  6. Format settings                          : CABAC / 4 Ref Frames
  7. Format settings, CABAC                   : Yes
  8. Format settings, ReFrames                : 4 frames
  9. Codec ID                                 : V_MPEG4/ISO/AVC
  10. Duration                                 : 1 h 53 min
  11. Bit rate mode                            : Variable
  12. Bit rate                                 : 20.7 Mb/s
  13. Maximum bit rate                         : 28.0 Mb/s
  14. Width                                    : 1 920 pixels
  15. Height                                   : 1 080 pixels
  16. Display aspect ratio                     : 16:9
  17. Frame rate mode                          : Constant
  18. Frame rate                               : 23.976 (24000/1001) FPS
  19. Color space                              : YUV
  20. Chroma subsampling                       : 4:2:0
  21. Bit depth                                : 8 bits
  22. Scan type                                : Progressive
  23. Bits/(Pixel*Frame)                       : 0.417
  24. Stream size                              : 16.5 GiB (86%)
  25. Title                                    : What.a.Wonderful.Family.2.2017.JAPANESE.1080p.BluRay.REMUX.AVC.TrueHD.5.1-FGT
  26. Language                                 : English
  27. Default                                  : No
  28. Forced                                   : No

  29. Audio #1
  30. ID                                       : 2
  31. Format                                   : MLP FBA
  32. Format/Info                              : Meridian Lossless Packing FBA
  33. Commercial name                          : Dolby TrueHD
  34. Codec ID                                 : A_TRUEHD
  35. Duration                                 : 1 h 53 min
  36. Bit rate mode                            : Variable
  37. Bit rate                                 : 2 007 kb/s
  38. Maximum bit rate                         : 2 826 kb/s
  39. Channel(s)                               : 6 channels
  40. Channel layout                           : L R C LFE Ls Rs
  41. Sampling rate                            : 96.0 kHz
  42. Frame rate                               : 1 200.000 FPS (80 SPF)
  43. Compression mode                         : Lossless
  44. Stream size                              : 1.59 GiB (8%)
  45. Title                                    : What.a.Wonderful.Family.2.2017.JAPANESE.1080p.BluRay.REMUX.AVC.TrueHD.5.1-FGT
  46. Language                                 : Japanese
  47. Default                                  : Yes
  48. Forced                                   : No

  49. Audio #2
  50. ID                                       : 3
  51. Format                                   : AC-3
  52. Format/Info                              : Audio Coding 3
  53. Commercial name                          : Dolby Digital
  54. Codec ID                                 : A_AC3
  55. Duration                                 : 1 h 53 min
  56. Bit rate mode                            : Constant
  57. Bit rate                                 : 640 kb/s
  58. Channel(s)                               : 6 channels
  59. Channel layout                           : L R C LFE Ls Rs
  60. Sampling rate                            : 48.0 kHz
  61. Frame rate                               : 31.250 FPS (1536 SPF)
  62. Bit depth                                : 16 bits
  63. Compression mode                         : Lossy
  64. Stream size                              : 520 MiB (3%)
  65. Title                                    : What.a.Wonderful.Family.2.2017.JAPANESE.1080p.BluRay.REMUX.AVC.TrueHD.5.1-FGT
  66. Language                                 : Japanese
  67. Service kind                             : Complete Main
  68. Default                                  : No
  69. Forced                                   : No

  70. Audio #3
  71. ID                                       : 4
  72. Format                                   : AC-3
  73. Format/Info                              : Audio Coding 3
  74. Commercial name                          : Dolby Digital
  75. Codec ID                                 : A_AC3
  76. Duration                                 : 1 h 53 min
  77. Bit rate mode                            : Constant
  78. Bit rate                                 : 640 kb/s
  79. Channel(s)                               : 6 channels
  80. Channel layout                           : L R C LFE Ls Rs
  81. Sampling rate                            : 48.0 kHz
  82. Frame rate                               : 31.250 FPS (1536 SPF)
  83. Bit depth                                : 16 bits
  84. Compression mode                         : Lossy
  85. Stream size                              : 520 MiB (3%)
  86. Title                                    : What.a.Wonderful.Family.2.2017.JAPANESE.1080p.BluRay.REMUX.AVC.TrueHD.5.1-FGT
  87. Language                                 : Japanese
  88. Service kind                             : Complete Main
  89. Default                                  : No
  90. Forced                                   : No

  91. Text #1
  92. ID                                       : 5
  93. Format                                   : PGS
  94. Muxing mode                              : zlib
  95. Codec ID                                 : S_HDMV/PGS
  96. Codec ID/Info                            : Picture based subtitle format used on BDs/HD-DVDs
  97. Duration                                 : 1 h 50 min
  98. Bit rate                                 : 32.7 kb/s
  99. Count of elements                        : 2693
  100. Stream size                              : 25.8 MiB (0%)
  101. Title                                    : English-PGS
  102. Language                                 : English
  103. Default                                  : Yes
  104. Forced                                   : Yes

  105. Text #2
  106. ID                                       : 6
  107. Format                                   : PGS
  108. Muxing mode                              : zlib
  109. Codec ID                                 : S_HDMV/PGS
  110. Codec ID/Info                            : Picture based subtitle format used on BDs/HD-DVDs
  111. Duration                                 : 1 h 50 min
  112. Bit rate                                 : 29.6 kb/s
  113. Count of elements                        : 2693
  114. Stream size                              : 23.4 MiB (0%)
  115. Title                                    : Chinese-PGS
  116. Language                                 : Chinese
  117. Default                                  : No
  118. Forced                                   : No

  119. Menu
  120. 00:00:00.000                             : en:Chapter 01
  121. 00:08:15.786                             : en:Chapter 02
  122. 00:13:39.860                             : en:Chapter 03
  123. 00:26:30.880                             : en:Chapter 04
  124. 00:35:25.581                             : en:Chapter 05
  125. 00:41:35.075                             : en:Chapter 06
  126. 00:51:39.888                             : en:Chapter 07
  127. 01:03:04.655                             : en:Chapter 08
  128. 01:08:57.216                             : en:Chapter 09
  129. 01:18:20.362                             : en:Chapter 10
  130. 01:30:54.490                             : en:Chapter 11
  131. 01:41:30.209                             : en:Chapter 12
复制代码

复制代码

家属之苦2/麻烦家属2 What.a.Wonderful.Family.2.2017.JAPANESE.1080p.BluRay.REMUX.AVC.TrueHD.5.1-FGT 19.16GB-2.png 家属之苦2/麻烦家属2 What.a.Wonderful.Family.2.2017.JAPANESE.1080p.BluRay.REMUX.AVC.TrueHD.5.1-FGT 19.16GB-3.png 家属之苦2/麻烦家属2 What.a.Wonderful.Family.2.2017.JAPANESE.1080p.BluRay.REMUX.AVC.TrueHD.5.1-FGT 19.16GB-4.png





回复

使用道具 举报

级别:荣升主角 Lv.5

注册时间
2018-5-27
最后登录
2019-6-24
听众
10
收听
0
主题
0
蓝光币
135 枚
贡献
0 点
发表于 2018-11-30 18:51:34 | 显示全部楼层
感谢分享!
回复

使用道具 举报

*滑动验证:
懒得打字嘛,点击右侧快捷回复 【右侧内容,后台自定义】
您需要登录后才可以回帖 登录 | 立即注册

本版积分规则

QQ|Archiver|手机版|小黑屋| 中国高清网 |网站地图

GMT+8, 2019-6-25 01:16 , Processed in 0.232255 second(s), 46 queries .

Powered by HDchina X3.4

Copyright 2017-2019©HDchina.All right reserved

返回顶部 联系我们