你所知道的4K资源这里全部都有 4K电影 | 4K视频 | 4K壁纸 | 4K MV 怎么播放4K视频 | 4K电视演示片

教你玩转4K私人与家庭影院存储 NAS组装 | 黑群辉 家庭/影院Nas论坛

4K家庭影院信号源与视频设备知识 4K蓝光高清播放机 - 那个品牌好? 4K投影机论坛 | 4K电视机论坛

手把手教你搭建属于自己的家庭影院 4K家庭影院案例 | 家庭影院音频 4K家庭影院论坛

查看: 59|回复: 0

[喜剧片] 热情如火/热情似火 Some.Like.It.Hot.1959.REMASTERED.1080p.BluRay.REMUX.AVC.LPCM.1.0-FGT 26.41GB

[复制链接]

 成长值: 710

级别:资源管理组

注册时间
2017-10-20
最后登录
2019-3-22
听众
0
收听
0
主题
76497
蓝光币
134735 枚
贡献
146306 点
发表于 2018-11-26 22:43:53 | 显示全部楼层 |阅读模式

热情如火/热情似火 Some.Like.It.Hot.1959.REMASTERED.1080p.BluRay.REMUX.AVC.LPCM.1.0-FGT 26.41GB-1.jpg
◎译  名 热情如火 / 热情似火 / 如此热辣
◎片  名 热情如火 Some Like It Hot
◎年  代 1959
◎国  家 美国
◎类  别 笑剧
◎语  言 英语
◎上映日期 1959-03-29
◎IMDb评分  8.2/10 from 211,922 users
◎IMDb链接  http://www.imdb.com/title/tt0053291/
◎豆瓣评分 8.8/10 from 26163 users
◎豆瓣链接 https://movie.douban.com/subject/1292574/
◎片  长 120 分钟
◎导  演 比利·怀德
◎主  演 玛丽莲·梦露
      托尼·柯蒂斯
      杰克·莱蒙
      乔治·拉夫特
      帕特·奥布莱恩
      乔·E·布朗
      内赫米亚·佩尔索夫
      琼·肖丽
      乔治·E·斯通
      戴夫·巴里
      迈克·马祖尔凯
      哈里·威尔逊
      贝弗利·威尔斯
      芭芭拉·德鲁
      小爱德华·G·罗宾逊

◎简  介 

  1930年月,动乱的芝加哥经常被强盗团体骚扰。乔(托尼?柯蒂斯)和杰利(杰克?莱蒙)本是乐团成员,两人因偶然目击伏莽史巴克的手下在车库内射杀告发者而被穷追不舍。穷途末路之下,他们男扮女装加入一女性乐团,并随该团来到迈阿密。
  该团中有位名叫秀珈(玛丽莲?梦露)的异常美丽性感女郎,乔晓得她一心想钓有钱人时,便化身石油王的令郎诡计获得她的芳心;另一面,杰利也对秀珈情之所钟,可是他却获得一位不知他是男儿身的富翁的不竭纠缠,笑话迭生。未几,乔和杰利又遇史巴克一伙,只得再次流亡,排场加倍逗笑。

◎获奖情况 

  第32届奥斯卡金像奖 (1960)
  最好导演(提名) 比利·怀德
  最好男配角(提名) 杰克·莱蒙
  最好改编剧本(提名) 比利·怀德 /  I·A·L·戴蒙德
  黑白片最好摄影(提名) 查尔斯·朗
  黑白片最好艺术指导和布景(提名) Ted Haworth /  Edward G. Boyle
  黑白片最好打扮设想 Orry-Kelly

  第20届威尼斯电影节 (1959)
  主比赛单元 金狮奖 (提名) 比利·怀德


  1. Video
  2. ID                                       : 1
  3. Format                                   : AVC
  4. Format/Info                              : Advanced Video Codec
  5. Format profile                           : [url=/cdn-cgi/l/email-protection][email protected][/url]
  6. Format settings                          : CABAC / 4 Ref Frames
  7. Format settings, CABAC                   : Yes
  8. Format settings, ReFrames                : 4 frames
  9. Codec ID                                 : V_MPEG4/ISO/AVC
  10. Duration                                 : 2 h 2 min
  11. Bit rate mode                            : Variable
  12. Bit rate                                 : 29.6 Mb/s
  13. Maximum bit rate                         : 37.0 Mb/s
  14. Width                                    : 1 920 pixels
  15. Height                                   : 1 080 pixels
  16. Display aspect ratio                     : 16:9
  17. Frame rate mode                          : Constant
  18. Frame rate                               : 23.976 (24000/1001) FPS
  19. Color space                              : YUV
  20. Chroma subsampling                       : 4:2:0
  21. Bit depth                                : 8 bits
  22. Scan type                                : Progressive
  23. Bits/(Pixel*Frame)                       : 0.594
  24. Stream size                              : 25.2 GiB (96%)
  25. Title                                    : Some.Like.It.Hot.1959.REMASTERED.1080p.BluRay.REMUX.AVC.LPCM.1.0-FGT
  26. Language                                 : English
  27. Default                                  : No
  28. Forced                                   : No

  29. Audio #1
  30. ID                                       : 2
  31. Format                                   : PCM
  32. Format settings                          : Little / Signed
  33. Codec ID                                 : A_PCM/INT/LIT
  34. Duration                                 : 2 h 2 min
  35. Bit rate mode                            : Constant
  36. Bit rate                                 : 1 152 kb/s
  37. Sampling rate                            : 48.0 kHz
  38. Frame rate                               : 30.000 FPS (1600 SPF)
  39. Bit depth                                : 24 bits
  40. Stream size                              : 1 008 MiB (4%)
  41. Title                                    : Some.Like.It.Hot.1959.REMASTERED.1080p.BluRay.REMUX.AVC.LPCM.1.0-FGT
  42. Language                                 : English
  43. Default                                  : Yes
  44. Forced                                   : No

  45. Audio #2
  46. ID                                       : 3
  47. Format                                   : AC-3
  48. Format/Info                              : Audio Coding 3
  49. Commercial name                          : Dolby Digital
  50. Codec ID                                 : A_AC3
  51. Duration                                 : 2 h 2 min
  52. Bit rate mode                            : Constant
  53. Bit rate                                 : 192 kb/s
  54. Channel(s)                               : 1 channel
  55. Channel layout                           : C
  56. Sampling rate                            : 48.0 kHz
  57. Frame rate                               : 31.250 FPS (1536 SPF)
  58. Bit depth                                : 16 bits
  59. Compression mode                         : Lossy
  60. Stream size                              : 168 MiB (1%)
  61. Title                                    : Some.Like.It.Hot.1959.REMASTERED.1080p.BluRay.REMUX.AVC.LPCM.1.0-FGT
  62. Language                                 : English
  63. Service kind                             : Complete Main
  64. Default                                  : No
  65. Forced                                   : No

  66. Text
  67. ID                                       : 4
  68. Format                                   : PGS
  69. Muxing mode                              : zlib
  70. Codec ID                                 : S_HDMV/PGS
  71. Codec ID/Info                            : Picture based subtitle format used on BDs/HD-DVDs
  72. Duration                                 : 1 h 59 min
  73. Bit rate                                 : 72.9 kb/s
  74. Count of elements                        : 3964
  75. Stream size                              : 62.1 MiB (0%)
  76. Title                                    : English-PGS
  77. Language                                 : English
  78. Default                                  : Yes
  79. Forced                                   : No

  80. Menu
  81. 00:00:00.000                             : en:Chapter 01
  82. 00:01:51.361                             : en:Chapter 02
  83. 00:12:35.004                             : en:Chapter 03
  84. 00:24:17.789                             : en:Chapter 04
  85. 00:35:07.563                             : en:Chapter 05
  86. 00:48:43.754                             : en:Chapter 06
  87. 00:57:35.285                             : en:Chapter 07
  88. 01:09:28.706                             : en:Chapter 08
  89. 01:15:33.612                             : en:Chapter 09
  90. 01:30:40.435                             : en:Chapter 10
  91. 01:34:42.385                             : en:Chapter 11
  92. 01:46:05.609                             : en:Chapter 12
  93. 01:54:53.469                             : en:Chapter 13
复制代码

复制代码

热情如火/热情似火 Some.Like.It.Hot.1959.REMASTERED.1080p.BluRay.REMUX.AVC.LPCM.1.0-FGT 26.41GB-2.png 热情如火/热情似火 Some.Like.It.Hot.1959.REMASTERED.1080p.BluRay.REMUX.AVC.LPCM.1.0-FGT 26.41GB-3.png 热情如火/热情似火 Some.Like.It.Hot.1959.REMASTERED.1080p.BluRay.REMUX.AVC.LPCM.1.0-FGT 26.41GB-4.png





回复

使用道具 举报

懒得打字嘛,点击右侧快捷回复 【右侧内容,后台自定义】
您需要登录后才可以回帖 登录 | 立即注册

本版积分规则

QQ|Archiver|手机版|小黑屋|中国高清网 |网站地图

GMT+8, 2019-3-22 10:11 , Processed in 0.246454 second(s), 41 queries .

Powered by HDchina X3.4

Copyright 2017-2018©HDchina.All right reserved

返回顶部 联系我们