你所知道的4K资源这里全部都有 4K电影 | 4K视频 | 4K壁纸 | 4K MV 怎么播放4K视频 | 4K电视演示片

教你玩转4K私人与家庭影院存储 NAS组装 | 黑群辉 家庭/影院Nas论坛

4K家庭影院信号源与视频设备知识 4K蓝光高清播放机 - 那个品牌好? 4K投影机论坛 | 4K电视机论坛

手把手教你搭建属于自己的家庭影院 4K家庭影院案例 | 家庭影院音频 4K家庭影院论坛

查看: 46|回复: 1

[喜剧片] 亚瑟/二八佳人花公子 Arthur.1981.1080p.BluRay.REMUX.AVC.DTS-HD.MA.1.0-FGT 13.88GB

[复制链接]

 成长值: 130

级别:资源管理组

UID
1
注册时间
2017-10-20
最后登录
2019-1-22
听众
0
收听
0
主题
73996
蓝光币
116842 枚
贡献
143805 点
发表于 2018-11-26 22:42:44 | 显示全部楼层 |阅读模式

亚瑟/妙龄少女花令郎 Arthur.1981.1080p.BluRay.REMUX.AVC.DTS-HD.MA.1.0-FGT 13.88GB-1.jpg
◎译  名 亚瑟 / 妙龄少女花令郎 / 阔少爷
◎片  名 亚瑟 Arthur
◎年  代 1981
◎国  家 美国
◎类  别 笑剧 / 恋爱
◎语  言 英语
◎上映日期 1981-12-24
◎IMDb评分  6.9/10 from 23,518 users
◎IMDb链接  http://www.imdb.com/title/tt0082031/
◎豆瓣评分 7.4/10 from 116 users
◎豆瓣链接 https://movie.douban.com/subject/1294707/
◎片  长 97 分钟
◎导  演 史蒂夫 戈登 (Steve Gordon (I))
◎主  演 达德利·摩尔
      丽莎·明奈利
      约翰·吉尔古德
      杰拉丁·菲茨杰拉德
      吉尔·艾肯伯里
      斯蒂芬·埃利奥特

◎简  介 

  富家子弟亚瑟从小就被宠坏了,可他却阴差阳谬爱上了一个办事员,因而他不能不做出人生的严重挑选:一辈子繁华富贵,但婚姻由怙恃做主;大概是恋爱加贫苦。

◎获奖情况 

  第54届奥斯卡金像奖 (1982)
  最好男配角(提名) 达德利·摩尔
  最好男配角 约翰·吉尔古德
  最好原创剧本(提名) Steve Gordon
  最好原创歌曲 伯特·巴卡拉克 /  Christopher Cross /  卡罗尔·拜尔·塞杰尔 /  Peter Allen


  1. Video
  2. ID                                       : 1
  3. Format                                   : AVC
  4. Format/Info                              : Advanced Video Codec
  5. Format profile                           : [url=/cdn-cgi/l/email-protection][email protected][/url]
  6. Format settings                          : CABAC / 2 Ref Frames
  7. Format settings, CABAC                   : Yes
  8. Format settings, ReFrames                : 2 frames
  9. Format settings, GOP                     : M=1, N=10
  10. Codec ID                                 : V_MPEG4/ISO/AVC
  11. Duration                                 : 1 h 37 min
  12. Bit rate mode                            : Variable
  13. Bit rate                                 : 18.0 Mb/s
  14. Width                                    : 1 920 pixels
  15. Height                                   : 1 080 pixels
  16. Display aspect ratio                     : 16:9
  17. Frame rate mode                          : Constant
  18. Frame rate                               : 23.976 (24000/1001) FPS
  19. Color space                              : YUV
  20. Chroma subsampling                       : 4:2:0
  21. Bit depth                                : 8 bits
  22. Scan type                                : Progressive
  23. Bits/(Pixel*Frame)                       : 0.361
  24. Stream size                              : 12.2 GiB (88%)
  25. Title                                    : Arthur.1981.1080p.BluRay.REMUX.AVC.DTS-HD.MA.1.0-FGT
  26. Language                                 : English
  27. Default                                  : No
  28. Forced                                   : No

  29. Audio #1
  30. ID                                       : 2
  31. Format                                   : DTS XLL
  32. Format/Info                              : Digital Theater Systems
  33. Commercial name                          : DTS-HD Master Audio
  34. Codec ID                                 : A_DTS
  35. Duration                                 : 1 h 37 min
  36. Bit rate mode                            : Variable
  37. Bit rate                                 : 1 093 kb/s
  38. Channel(s)                               : 1 channel
  39. Channel layout                           : C
  40. Sampling rate                            : 48.0 kHz
  41. Frame rate                               : 93.750 FPS (512 SPF)
  42. Bit depth                                : 24 bits
  43. Compression mode                         : Lossless
  44. Stream size                              : 759 MiB (5%)
  45. Title                                    : Arthur.1981.1080p.BluRay.REMUX.AVC.DTS-HD.MA.1.0-FGT
  46. Language                                 : English
  47. Default                                  : Yes
  48. Forced                                   : No

  49. Audio #2
  50. ID                                       : 3
  51. Format                                   : DTS
  52. Format/Info                              : Digital Theater Systems
  53. Codec ID                                 : A_DTS
  54. Duration                                 : 1 h 37 min
  55. Bit rate mode                            : Constant
  56. Bit rate                                 : 768 kb/s
  57. Channel(s)                               : 1 channel
  58. Channel layout                           : C
  59. Sampling rate                            : 48.0 kHz
  60. Frame rate                               : 93.750 FPS (512 SPF)
  61. Bit depth                                : 24 bits
  62. Compression mode                         : Lossy
  63. Stream size                              : 534 MiB (4%)
  64. Title                                    : Arthur.1981.1080p.BluRay.REMUX.AVC.DTS-HD.MA.1.0-FGT
  65. Language                                 : English
  66. Default                                  : No
  67. Forced                                   : No

  68. Audio #3
  69. ID                                       : 4
  70. Format                                   : AC-3
  71. Format/Info                              : Audio Coding 3
  72. Commercial name                          : Dolby Digital
  73. Codec ID                                 : A_AC3
  74. Duration                                 : 1 h 37 min
  75. Bit rate mode                            : Constant
  76. Bit rate                                 : 192 kb/s
  77. Channel(s)                               : 1 channel
  78. Channel layout                           : C
  79. Sampling rate                            : 48.0 kHz
  80. Frame rate                               : 31.250 FPS (1536 SPF)
  81. Bit depth                                : 16 bits
  82. Compression mode                         : Lossy
  83. Stream size                              : 133 MiB (1%)
  84. Title                                    : Arthur.1981.1080p.BluRay.REMUX.AVC.DTS-HD.MA.1.0-FGT
  85. Language                                 : French
  86. Service kind                             : Complete Main
  87. Default                                  : No
  88. Forced                                   : No

  89. Audio #4
  90. ID                                       : 5
  91. Format                                   : AC-3
  92. Format/Info                              : Audio Coding 3
  93. Commercial name                          : Dolby Digital
  94. Codec ID                                 : A_AC3
  95. Duration                                 : 1 h 37 min
  96. Bit rate mode                            : Constant
  97. Bit rate                                 : 192 kb/s
  98. Channel(s)                               : 1 channel
  99. Channel layout                           : C
  100. Sampling rate                            : 48.0 kHz
  101. Frame rate                               : 31.250 FPS (1536 SPF)
  102. Bit depth                                : 16 bits
  103. Compression mode                         : Lossy
  104. Stream size                              : 133 MiB (1%)
  105. Title                                    : Arthur.1981.1080p.BluRay.REMUX.AVC.DTS-HD.MA.1.0-FGT
  106. Language                                 : German
  107. Service kind                             : Complete Main
  108. Default                                  : No
  109. Forced                                   : No

  110. Audio #5
  111. ID                                       : 6
  112. Format                                   : AC-3
  113. Format/Info                              : Audio Coding 3
  114. Commercial name                          : Dolby Digital
  115. Codec ID                                 : A_AC3
  116. Duration                                 : 1 h 37 min
  117. Bit rate mode                            : Constant
  118. Bit rate                                 : 192 kb/s
  119. Channel(s)                               : 1 channel
  120. Channel layout                           : C
  121. Sampling rate                            : 48.0 kHz
  122. Frame rate                               : 31.250 FPS (1536 SPF)
  123. Bit depth                                : 16 bits
  124. Compression mode                         : Lossy
  125. Stream size                              : 133 MiB (1%)
  126. Title                                    : Arthur.1981.1080p.BluRay.REMUX.AVC.DTS-HD.MA.1.0-FGT
  127. Language                                 : Spanish
  128. Service kind                             : Complete Main
  129. Default                                  : No
  130. Forced                                   : No

  131. Text #1
  132. ID                                       : 7
  133. Format                                   : PGS
  134. Muxing mode                              : zlib
  135. Codec ID                                 : S_HDMV/PGS
  136. Codec ID/Info                            : Picture based subtitle format used on BDs/HD-DVDs
  137. Duration                                 : 1 h 36 min
  138. Bit rate                                 : 39.2 kb/s
  139. Count of elements                        : 2752
  140. Stream size                              : 27.0 MiB (0%)
  141. Title                                    : English-PGS
  142. Language                                 : English
  143. Default                                  : Yes
  144. Forced                                   : No

  145. Text #2
  146. ID                                       : 8
  147. Format                                   : PGS
  148. Muxing mode                              : zlib
  149. Codec ID                                 : S_HDMV/PGS
  150. Codec ID/Info                            : Picture based subtitle format used on BDs/HD-DVDs
  151. Duration                                 : 1 h 35 min
  152. Bit rate                                 : 29.6 kb/s
  153. Count of elements                        : 2644
  154. Stream size                              : 20.3 MiB (0%)
  155. Title                                    : French-PGS
  156. Language                                 : French
  157. Default                                  : No
  158. Forced                                   : No

  159. Text #3
  160. ID                                       : 9
  161. Format                                   : PGS
  162. Muxing mode                              : zlib
  163. Codec ID                                 : S_HDMV/PGS
  164. Codec ID/Info                            : Picture based subtitle format used on BDs/HD-DVDs
  165. Duration                                 : 1 h 36 min
  166. Bit rate                                 : 40.2 kb/s
  167. Count of elements                        : 2918
  168. Stream size                              : 27.7 MiB (0%)
  169. Title                                    : German-PGS
  170. Language                                 : German
  171. Default                                  : No
  172. Forced                                   : No

  173. Text #4
  174. ID                                       : 10
  175. Format                                   : PGS
  176. Muxing mode                              : zlib
  177. Codec ID                                 : S_HDMV/PGS
  178. Codec ID/Info                            : Picture based subtitle format used on BDs/HD-DVDs
  179. Duration                                 : 1 h 35 min
  180. Bit rate                                 : 33.4 kb/s
  181. Count of elements                        : 2636
  182. Stream size                              : 22.9 MiB (0%)
  183. Title                                    : Spanish-PGS
  184. Language                                 : Spanish
  185. Default                                  : No
  186. Forced                                   : No

  187. Menu
  188. 00:00:00.000                             : en:Chapter 01
  189. 00:04:36.401                             : en:Chapter 02
  190. 00:10:22.246                             : en:Chapter 03
  191. 00:12:47.433                             : en:Chapter 04
  192. 00:16:03.379                             : en:Chapter 05
  193. 00:20:15.214                             : en:Chapter 06
  194. 00:24:22.794                             : en:Chapter 07
  195. 00:26:48.773                             : en:Chapter 08
  196. 00:29:12.208                             : en:Chapter 09
  197. 00:30:55.353                             : en:Chapter 10
  198. 00:33:50.653                             : en:Chapter 11
  199. 00:36:29.228                             : en:Chapter 12
  200. 00:38:07.493                             : en:Chapter 13
  201. 00:40:04.860                             : en:Chapter 14
  202. 00:47:21.463                             : en:Chapter 15
  203. 00:50:01.289                             : en:Chapter 16
  204. 00:52:06.998                             : en:Chapter 17
  205. 00:55:36.207                             : en:Chapter 18
  206. 00:57:42.500                             : en:Chapter 19
  207. 01:01:12.126                             : en:Chapter 20
  208. 01:04:35.788                             : en:Chapter 21
  209. 01:06:36.575                             : en:Chapter 22
  210. 01:10:52.748                             : en:Chapter 23
  211. 01:14:04.523                             : en:Chapter 24
  212. 01:18:22.155                             : en:Chapter 25
  213. 01:21:15.203                             : en:Chapter 26
  214. 01:23:27.419                             : en:Chapter 27
  215. 01:26:37.442                             : en:Chapter 28
  216. 01:30:20.123                             : en:Chapter 29
  217. 01:34:55.064                             : en:Chapter 30
复制代码

复制代码

亚瑟/妙龄少女花令郎 Arthur.1981.1080p.BluRay.REMUX.AVC.DTS-HD.MA.1.0-FGT 13.88GB-2.png 亚瑟/妙龄少女花令郎 Arthur.1981.1080p.BluRay.REMUX.AVC.DTS-HD.MA.1.0-FGT 13.88GB-3.png 亚瑟/妙龄少女花令郎 Arthur.1981.1080p.BluRay.REMUX.AVC.DTS-HD.MA.1.0-FGT 13.88GB-4.png





回复

使用道具 举报

级别:专业龙套 Lv.4

UID
4064
注册时间
2018-5-27
最后登录
2019-1-22
听众
3
收听
0
主题
0
蓝光币
2 枚
贡献
0 点
发表于 2018-11-30 18:48:31 | 显示全部楼层
感谢分享!
回复

使用道具 举报

懒得打字嘛,点击右侧快捷回复 【右侧内容,后台自定义】
您需要登录后才可以回帖 登录 | 立即注册

本版积分规则

QQ|Archiver|手机版|小黑屋|中国高清网 |网站地图

GMT+8, 2019-1-23 01:03 , Processed in 0.158614 second(s), 40 queries .

Powered by HDchina X3.4

Copyright 2017-2018©HDchina.All right reserved

返回顶部 联系我们