你所知道的4K资源这里全部都有 4K电影 | 4K视频 | 4K壁纸 | 4K MV 怎么播放4K视频 | 4K电视演示片

教你玩转4K私人与家庭影院存储 NAS组装 | 黑群辉 家庭/影院Nas论坛

4K家庭影院信号源与视频设备知识 4K蓝光高清播放机 - 那个品牌好? 4K投影机论坛 | 4K电视机论坛

手把手教你搭建属于自己的家庭影院 4K家庭影院案例 | 家庭影院音频 4K家庭影院论坛

查看: 107|回复: 1

[喜剧片] 超时空同居/口袋宇宙 How.Long.Will.I.Love.U.2018.CHINESE.1080p.BluRay.REMUX.AVC.TrueHD.5.1-FGT 20.26GB

[复制链接]

 成长值: 710

级别:资源管理组

注册时间
2017-10-20
最后登录
2019-3-22
听众
0
收听
0
主题
76497
蓝光币
134745 枚
贡献
146306 点
发表于 2018-11-26 22:41:19 | 显示全部楼层 |阅读模式

超时空同居/口袋宇宙 How.Long.Will.I.Love.U.2018.CHINESE.1080p.BluRay.REMUX.AVC.TrueHD.5.1-FGT 20.26GB-1.jpg
◎译  名 超时空同居 / 口袋宇宙 / How Long Will I Love U
◎片  名 超时空同居
◎年  代 2018
◎国  家 中国大陆
◎类  别 笑剧 / 恋爱 / 奇异
◎语  言 汉语普通话
◎上映日期 2018-05-18(中国大陆)
◎IMDb评分  6.4/10 from 446 users
◎IMDb链接  http://www.imdb.com/title/tt8404272/
◎豆瓣评分 6.9/10 from 275607 users
◎豆瓣链接 https://movie.douban.com/subject/27133303/
◎片  长 101分钟
◎导  演 苏伦
◎主  演 雷佳音
      佟丽娅
      张衣
      于和伟
      王正佳
      陶虹
      李念
      李光亮
      杨玏
      范明
      徐峥
      杨迪
      方龄
      陈昊

◎简  介 

  生活在2018年的大龄女青年谷小焦(佟丽娅 饰),胡想可以嫁一个能买得起她幼时豪宅的有钱人,却频频受挫,只能蜗居在一栋老居民楼里。生活在1999年的陆鸣(雷佳音 饰)手握着自己设想的宏伟蓝图,却始终找不到投资人,同时也面临严重的奇迹危机。希奇的时辰到临了,失意的两小我回抵家中居然发生了惊人的一幕,同一扇门关上后居然是两个时空的交汇点,两个分歧时空的人相遇了,为了拯救自己的未来,两人共商大计,开启了空想一夜暴富的一系列办法,激发了啼笑皆非的连锁反应。而他们不晓得的是,两个时空的堆叠是报酬的操控,他们每走一步城市激发不成预知的成果,更要命的事,原本只是视对方为赢利拍档的两人激发了爱的火花……

◎获奖情况 

  第21届上海国际电影节 (2018)
  电影频道传媒大奖 最受传媒关注女配角 佟丽娅
  电影频道传媒大奖 最受传媒关注新人导演 苏伦
  电影频道传媒大奖(提名) 苏伦


  1. Video
  2. ID                                       : 1
  3. Format                                   : AVC
  4. Format/Info                              : Advanced Video Codec
  5. Format profile                           : [url=/cdn-cgi/l/email-protection][email protected][/url]
  6. Format settings                          : CABAC / 4 Ref Frames
  7. Format settings, CABAC                   : Yes
  8. Format settings, ReFrames                : 4 frames
  9. Codec ID                                 : V_MPEG4/ISO/AVC
  10. Duration                                 : 1 h 40 min
  11. Bit rate mode                            : Variable
  12. Bit rate                                 : 25.5 Mb/s
  13. Maximum bit rate                         : 33.0 Mb/s
  14. Width                                    : 1 920 pixels
  15. Height                                   : 1 080 pixels
  16. Display aspect ratio                     : 16:9
  17. Frame rate mode                          : Constant
  18. Frame rate                               : 24.000 FPS
  19. Standard                                 : NTSC
  20. Color space                              : YUV
  21. Chroma subsampling                       : 4:2:0
  22. Bit depth                                : 8 bits
  23. Scan type                                : Progressive
  24. Bits/(Pixel*Frame)                       : 0.513
  25. Stream size                              : 17.9 GiB (88%)
  26. Title                                    : How.Long.Will.I.Love.U.2018.CHINESE.1080p.BluRay.REMUX.AVC.TrueHD.5.1-FGT
  27. Language                                 : English
  28. Default                                  : No
  29. Forced                                   : No
  30. Color range                              : Limited
  31. Color primaries                          : BT.709
  32. Transfer characteristics                 : BT.709
  33. Matrix coefficients                      : BT.709

  34. Audio #1
  35. ID                                       : 2
  36. Format                                   : MLP FBA
  37. Format/Info                              : Meridian Lossless Packing FBA
  38. Commercial name                          : Dolby TrueHD
  39. Codec ID                                 : A_TRUEHD
  40. Duration                                 : 1 h 40 min
  41. Bit rate mode                            : Variable
  42. Bit rate                                 : 1 935 kb/s
  43. Maximum bit rate                         : 3 330 kb/s
  44. Channel(s)                               : 6 channels
  45. Channel layout                           : L R C LFE Ls Rs
  46. Sampling rate                            : 96.0 kHz
  47. Frame rate                               : 1 200.000 FPS (80 SPF)
  48. Compression mode                         : Lossless
  49. Stream size                              : 1.36 GiB (7%)
  50. Title                                    : How.Long.Will.I.Love.U.2018.CHINESE.1080p.BluRay.REMUX.AVC.TrueHD.5.1-FGT
  51. Language                                 : Chinese
  52. Default                                  : Yes
  53. Forced                                   : No

  54. Audio #2
  55. ID                                       : 3
  56. Format                                   : AC-3
  57. Format/Info                              : Audio Coding 3
  58. Commercial name                          : Dolby Digital
  59. Codec ID                                 : A_AC3
  60. Duration                                 : 1 h 40 min
  61. Bit rate mode                            : Constant
  62. Bit rate                                 : 640 kb/s
  63. Channel(s)                               : 6 channels
  64. Channel layout                           : L R C LFE Ls Rs
  65. Sampling rate                            : 48.0 kHz
  66. Frame rate                               : 31.250 FPS (1536 SPF)
  67. Bit depth                                : 16 bits
  68. Compression mode                         : Lossy
  69. Stream size                              : 461 MiB (2%)
  70. Title                                    : How.Long.Will.I.Love.U.2018.CHINESE.1080p.BluRay.REMUX.AVC.TrueHD.5.1-FGT
  71. Language                                 : Chinese
  72. Service kind                             : Complete Main
  73. Default                                  : No
  74. Forced                                   : No

  75. Audio #3
  76. ID                                       : 4
  77. Format                                   : AC-3
  78. Format/Info                              : Audio Coding 3
  79. Commercial name                          : Dolby Digital
  80. Codec ID                                 : A_AC3
  81. Duration                                 : 1 h 40 min
  82. Bit rate mode                            : Constant
  83. Bit rate                                 : 640 kb/s
  84. Channel(s)                               : 6 channels
  85. Channel layout                           : L R C LFE Ls Rs
  86. Sampling rate                            : 48.0 kHz
  87. Frame rate                               : 31.250 FPS (1536 SPF)
  88. Bit depth                                : 16 bits
  89. Compression mode                         : Lossy
  90. Stream size                              : 461 MiB (2%)
  91. Title                                    : How.Long.Will.I.Love.U.2018.CHINESE.1080p.BluRay.REMUX.AVC.TrueHD.5.1-FGT
  92. Language                                 : Chinese
  93. Service kind                             : Complete Main
  94. Default                                  : No
  95. Forced                                   : No

  96. Text #1
  97. ID                                       : 5
  98. Format                                   : PGS
  99. Muxing mode                              : zlib
  100. Codec ID                                 : S_HDMV/PGS
  101. Codec ID/Info                            : Picture based subtitle format used on BDs/HD-DVDs
  102. Duration                                 : 1 h 34 min
  103. Bit rate                                 : 39.8 kb/s
  104. Count of elements                        : 2341
  105. Stream size                              : 26.9 MiB (0%)
  106. Title                                    : English-PGS
  107. Language                                 : English
  108. Default                                  : Yes
  109. Forced                                   : Yes

  110. Text #2
  111. ID                                       : 6
  112. Format                                   : PGS
  113. Muxing mode                              : zlib
  114. Codec ID                                 : S_HDMV/PGS
  115. Codec ID/Info                            : Picture based subtitle format used on BDs/HD-DVDs
  116. Duration                                 : 1 h 34 min
  117. Bit rate                                 : 30.9 kb/s
  118. Count of elements                        : 2343
  119. Stream size                              : 20.9 MiB (0%)
  120. Title                                    : Chinese-PGS
  121. Language                                 : Chinese
  122. Default                                  : No
  123. Forced                                   : No

  124. Text #3
  125. ID                                       : 7
  126. Format                                   : PGS
  127. Muxing mode                              : zlib
  128. Codec ID                                 : S_HDMV/PGS
  129. Codec ID/Info                            : Picture based subtitle format used on BDs/HD-DVDs
  130. Duration                                 : 1 h 34 min
  131. Bit rate                                 : 30.3 kb/s
  132. Count of elements                        : 2341
  133. Stream size                              : 20.4 MiB (0%)
  134. Title                                    : Chinese-PGS
  135. Language                                 : Chinese
  136. Default                                  : No
  137. Forced                                   : No

  138. Menu
  139. 00:00:00.000                             : en:Chapter 01
  140. 00:08:58.000                             : en:Chapter 02
  141. 00:16:45.875                             : en:Chapter 03
  142. 00:25:20.583                             : en:Chapter 04
  143. 00:34:19.833                             : en:Chapter 05
  144. 00:41:22.750                             : en:Chapter 06
  145. 00:49:56.125                             : en:Chapter 07
  146. 00:58:41.416                             : en:Chapter 08
  147. 01:07:29.000                             : en:Chapter 09
  148. 01:14:36.958                             : en:Chapter 10
  149. 01:22:28.750                             : en:Chapter 11
  150. 01:28:46.208                             : en:Chapter 12
复制代码

复制代码

超时空同居/口袋宇宙 How.Long.Will.I.Love.U.2018.CHINESE.1080p.BluRay.REMUX.AVC.TrueHD.5.1-FGT 20.26GB-2.png 超时空同居/口袋宇宙 How.Long.Will.I.Love.U.2018.CHINESE.1080p.BluRay.REMUX.AVC.TrueHD.5.1-FGT 20.26GB-3.png 超时空同居/口袋宇宙 How.Long.Will.I.Love.U.2018.CHINESE.1080p.BluRay.REMUX.AVC.TrueHD.5.1-FGT 20.26GB-4.png





回复

使用道具 举报

级别:荣升主角 Lv.5

注册时间
2018-5-27
最后登录
2019-3-21
听众
4
收听
0
主题
0
蓝光币
17 枚
贡献
0 点
发表于 2018-11-30 18:49:45 | 显示全部楼层
感谢分享!
回复

使用道具 举报

懒得打字嘛,点击右侧快捷回复 【右侧内容,后台自定义】
您需要登录后才可以回帖 登录 | 立即注册

本版积分规则

QQ|Archiver|手机版|小黑屋|中国高清网 |网站地图

GMT+8, 2019-3-22 10:49 , Processed in 0.172440 second(s), 41 queries .

Powered by HDchina X3.4

Copyright 2017-2018©HDchina.All right reserved

返回顶部 联系我们