你所知道的4K资源这里全部都有 4K电影 | 4K视频 | 4K壁纸 | 4K MV 怎么播放4K视频 | 4K电视演示片

教你玩转4K私人与家庭影院存储 NAS组装 | 黑群辉 家庭/影院Nas论坛

4K家庭影院信号源与视频设备知识 4K蓝光高清播放机 - 那个品牌好? 4K投影机论坛 | 4K电视机论坛

手把手教你搭建属于自己的家庭影院 4K家庭影院案例 | 家庭影院音频 4K家庭影院论坛

查看: 161|回复: 3

[科幻片] 不期而遇 Beyond.The.Sky.2018.1080p.BluRay.REMUX.AVC.DTS-HD.MA.5.1-FGT 14.97GB

[复制链接]

 成长值: 130

级别:资源管理组

UID
1
注册时间
2017-10-20
最后登录
2019-1-22
听众
0
收听
0
主题
73996
蓝光币
116842 枚
贡献
143805 点
发表于 2018-11-19 23:06:11 | 显示全部楼层 |阅读模式

萍水重逢 Beyond.The.Sky.2018.1080p.BluRay.REMUX.AVC.DTS-HD.MA.5.1-FGT 14.97GB-1.jpg
◎译  名 萍水重逢 / False Memory Syndrome / Encounter
◎片  名 萍水重逢 Beyond The Sky
◎年  代 2018
◎国  家 美国
◎类  别 科幻 / 悬疑 / 惊悚
◎语  言 英语
◎上映日期 2018-09-21(美国)
◎IMDb评分  6.4/10 from 1,600 users
◎IMDb链接  http://www.imdb.com/title/tt3665498/
◎豆瓣评分 今朝无人评价
◎豆瓣链接 https://movie.douban.com/subject/26292833/
◎片  长 90分钟
◎导  演 富尔维奥·塞斯蒂托
◎主  演 彼得·斯特曼
      乔丹·莘森
      马丁·桑斯梅耶
      唐·斯达克
      迪·沃伦斯
      莱安·卡勒斯
      克劳德·杜哈梅尔
      丹尼埃尔·布鲁吉奥
      迈克尔·本耶尔

◎简  介 

  While shooting a documentary to expose the lies of alien abductees, a provocative filmmaker and his crew encounter a young woman with a dark secret, who leads them to uncover a disturbing truth.


  1. Video
  2. ID                                       : 1
  3. Format                                   : AVC
  4. Format/Info                              : Advanced Video Codec
  5. Format profile                           : [url=/cdn-cgi/l/email-protection][email protected][/url]
  6. Format settings                          : CABAC / 4 Ref Frames
  7. Format settings, CABAC                   : Yes
  8. Format settings, ReFrames                : 4 frames
  9. Format settings, GOP                     : M=3, N=12
  10. Codec ID                                 : V_MPEG4/ISO/AVC
  11. Duration                                 : 1 h 21 min
  12. Bit rate mode                            : Variable
  13. Bit rate                                 : 20.8 Mb/s
  14. Maximum bit rate                         : 36.0 Mb/s
  15. Width                                    : 1 920 pixels
  16. Height                                   : 1 080 pixels
  17. Display aspect ratio                     : 16:9
  18. Frame rate mode                          : Constant
  19. Frame rate                               : 23.976 (24000/1001) FPS
  20. Color space                              : YUV
  21. Chroma subsampling                       : 4:2:0
  22. Bit depth                                : 8 bits
  23. Scan type                                : Progressive
  24. Bits/(Pixel*Frame)                       : 0.419
  25. Stream size                              : 11.9 GiB (80%)
  26. Title                                    : Beyond.The.Sky.2018.1080p.BluRay.REMUX.AVC.DTS-HD.MA.5.1-FGT
  27. Language                                 : English
  28. Default                                  : No
  29. Forced                                   : No

  30. Audio #1
  31. ID                                       : 2
  32. Format                                   : DTS XLL
  33. Format/Info                              : Digital Theater Systems
  34. Commercial name                          : DTS-HD Master Audio
  35. Codec ID                                 : A_DTS
  36. Duration                                 : 1 h 21 min
  37. Bit rate mode                            : Variable
  38. Bit rate                                 : 3 766 kb/s
  39. Channel(s)                               : 6 channels
  40. Channel layout                           : C L R Ls Rs LFE
  41. Sampling rate                            : 48.0 kHz
  42. Frame rate                               : 93.750 FPS (512 SPF)
  43. Bit depth                                : 24 bits
  44. Compression mode                         : Lossless
  45. Stream size                              : 2.16 GiB (14%)
  46. Title                                    : Beyond.The.Sky.2018.1080p.BluRay.REMUX.AVC.DTS-HD.MA.5.1-FGT
  47. Language                                 : English
  48. Default                                  : Yes
  49. Forced                                   : No

  50. Audio #2
  51. ID                                       : 3
  52. Format                                   : DTS
  53. Format/Info                              : Digital Theater Systems
  54. Codec ID                                 : A_DTS
  55. Duration                                 : 1 h 21 min
  56. Bit rate mode                            : Constant
  57. Bit rate                                 : 1 509 kb/s
  58. Channel(s)                               : 6 channels
  59. Channel layout                           : C L R Ls Rs LFE
  60. Sampling rate                            : 48.0 kHz
  61. Frame rate                               : 93.750 FPS (512 SPF)
  62. Bit depth                                : 24 bits
  63. Compression mode                         : Lossy
  64. Stream size                              : 885 MiB (6%)
  65. Title                                    : Beyond.The.Sky.2018.1080p.BluRay.REMUX.AVC.DTS-HD.MA.5.1-FGT
  66. Language                                 : English
  67. Default                                  : No
  68. Forced                                   : No

  69. Text #1
  70. ID                                       : 4
  71. Format                                   : PGS
  72. Muxing mode                              : zlib
  73. Codec ID                                 : S_HDMV/PGS
  74. Codec ID/Info                            : Picture based subtitle format used on BDs/HD-DVDs
  75. Duration                                 : 1 h 18 min
  76. Bit rate                                 : 49.8 kb/s
  77. Count of elements                        : 2496
  78. Stream size                              : 28.1 MiB (0%)
  79. Title                                    : English-PGS
  80. Language                                 : English
  81. Default                                  : Yes
  82. Forced                                   : No

  83. Text #2
  84. ID                                       : 5
  85. Format                                   : PGS
  86. Muxing mode                              : zlib
  87. Codec ID                                 : S_HDMV/PGS
  88. Codec ID/Info                            : Picture based subtitle format used on BDs/HD-DVDs
  89. Duration                                 : 1 h 18 min
  90. Bit rate                                 : 44.6 kb/s
  91. Count of elements                        : 2304
  92. Stream size                              : 25.1 MiB (0%)
  93. Title                                    : Spanish-PGS
  94. Language                                 : Spanish
  95. Default                                  : No
  96. Forced                                   : No

  97. Text #3
  98. ID                                       : 6
  99. Format                                   : PGS
  100. Muxing mode                              : zlib
  101. Codec ID                                 : S_HDMV/PGS
  102. Codec ID/Info                            : Picture based subtitle format used on BDs/HD-DVDs
  103. Duration                                 : 1 h 18 min
  104. Bit rate                                 : 44.1 kb/s
  105. Count of elements                        : 2328
  106. Stream size                              : 24.8 MiB (0%)
  107. Title                                    : French-PGS
  108. Language                                 : French
  109. Default                                  : No
  110. Forced                                   : No

  111. Menu
  112. 00:00:00.000                             : en:Chapter 01
  113. 00:11:54.755                             : en:Chapter 02
  114. 00:26:04.479                             : en:Chapter 03
  115. 00:33:00.770                             : en:Chapter 04
  116. 00:42:12.655                             : en:Chapter 05
  117. 00:53:10.395                             : en:Chapter 06
  118. 01:05:50.029                             : en:Chapter 07
  119. 01:19:17.335                             : en:Chapter 08
复制代码

复制代码

萍水重逢 Beyond.The.Sky.2018.1080p.BluRay.REMUX.AVC.DTS-HD.MA.5.1-FGT 14.97GB-2.png 萍水重逢 Beyond.The.Sky.2018.1080p.BluRay.REMUX.AVC.DTS-HD.MA.5.1-FGT 14.97GB-3.png 萍水重逢 Beyond.The.Sky.2018.1080p.BluRay.REMUX.AVC.DTS-HD.MA.5.1-FGT 14.97GB-4.png





回复

使用道具 举报

级别:专业龙套 Lv.4

UID
7370
注册时间
2018-9-25
最后登录
2019-1-22
听众
3
收听
0
主题
0
蓝光币
203 枚
贡献
0 点
QQ
发表于 2018-11-20 00:09:21 | 显示全部楼层
沙发!耶耶耶!
回复

使用道具 举报

级别:专业龙套 Lv.4

UID
4064
注册时间
2018-5-27
最后登录
2019-1-22
听众
3
收听
0
主题
0
蓝光币
2 枚
贡献
0 点
发表于 2018-11-23 22:07:00 | 显示全部楼层
感谢分享!
回复

使用道具 举报

级别:禁止发言

UID
1196
注册时间
2018-2-11
最后登录
2019-1-18
听众
2
收听
0
主题
0
蓝光币
35 枚
贡献
0 点
QQ
发表于 2018-12-22 01:24:36 | 显示全部楼层
提示: 作者被禁止或删除 内容自动屏蔽
回复

使用道具 举报

懒得打字嘛,点击右侧快捷回复 【右侧内容,后台自定义】
您需要登录后才可以回帖 登录 | 立即注册

本版积分规则

QQ|Archiver|手机版|小黑屋|中国高清网 |网站地图

GMT+8, 2019-1-23 01:00 , Processed in 0.138909 second(s), 41 queries .

Powered by HDchina X3.4

Copyright 2017-2018©HDchina.All right reserved

返回顶部 联系我们