你所知道的4K资源这里全部都有 4K电影 | 4K视频 | 4K壁纸 | 4K MV 怎么播放4K视频 | 4K电视演示片

教你玩转4K私人与家庭影院存储 NAS组装 | 黑群辉 家庭/影院Nas论坛

4K家庭影院信号源与视频设备知识 4K蓝光高清播放机 - 那个品牌好? 4K投影机论坛 | 4K电视机论坛

手把手教你搭建属于自己的家庭影院 4K家庭影院案例 | 家庭影院音频 4K家庭影院论坛

查看: 87|回复: 0

[科幻片] 人肉鼠餐 Rats.Night.Of.Terror.1984.1080p.BluRay.REMUX.AVC.LPCM.2.0-FGT 23.34GB

[复制链接]

 成长值: 710

级别:资源管理组

注册时间
2017-10-20
最后登录
2019-3-22
听众
0
收听
0
主题
76497
蓝光币
134743 枚
贡献
146306 点
发表于 2018-11-18 23:22:47 | 显示全部楼层 |阅读模式

人肉鼠餐 Rats.Night.Of.Terror.1984.1080p.BluRay.REMUX.AVC.LPCM.2.0-FGT 23.34GB-1.jpg
◎译  名 人肉鼠餐 / Rats: Night of Terror / 鼠之夜惊魂
◎片  名 人肉鼠餐 Rats - Notte di terrore
◎年  代 1984
◎国  家 意大利 / 法国
◎类  别 科幻 / 可骇
◎语  言 意大利语
◎上映日期 1984-12-05
◎IMDb评分  4.5/10 from 1,898 users
◎IMDb链接  http://www.imdb.com/title/tt0086176/
◎豆瓣评分 6.8/10 from 210 users
◎豆瓣链接 https://movie.douban.com/subject/1849411/
◎片  长 97 分钟 / Belgium: 90 分钟(video version)
◎导  演 布鲁诺·马泰
◎主  演 Ottaviano Dell'Acqua
      Geretta Geretta
      Massimo Vanni

◎简  介 

  地球就是小我鼠星球,在AB某年


  1. Video
  2. ID                                       : 1
  3. Format                                   : AVC
  4. Format/Info                              : Advanced Video Codec
  5. Format profile                           : [url=/cdn-cgi/l/email-protection][email protected][/url]
  6. Format settings                          : CABAC / 4 Ref Frames
  7. Format settings, CABAC                   : Yes
  8. Format settings, ReFrames                : 4 frames
  9. Codec ID                                 : V_MPEG4/ISO/AVC
  10. Duration                                 : 1 h 36 min
  11. Bit rate mode                            : Variable
  12. Bit rate                                 : 30.0 Mb/s
  13. Maximum bit rate                         : 35.0 Mb/s
  14. Width                                    : 1 920 pixels
  15. Height                                   : 1 080 pixels
  16. Display aspect ratio                     : 16:9
  17. Frame rate mode                          : Constant
  18. Frame rate                               : 23.976 (24000/1001) FPS
  19. Standard                                 : Component
  20. Color space                              : YUV
  21. Chroma subsampling                       : 4:2:0
  22. Bit depth                                : 8 bits
  23. Scan type                                : Progressive
  24. Bits/(Pixel*Frame)                       : 0.603
  25. Stream size                              : 20.2 GiB (87%)
  26. Title                                    : Rats.Night.Of.Terror.1984.1080p.BluRay.REMUX.AVC.LPCM.2.0-FGT
  27. Writing library                          : x264 core 148
  28. Encoding settings                        : cabac=1 / ref=4 / deblock=1:0:0 / analyse=0x3:0x113 / me=hex / subme=7 / psy=1 / psy_rd=1.00:0.00 / mixed_ref=1 / me_range=16 / chroma_me=1 / trellis=1 / 8x8dct=1 / cqm=1 / deadzone=21,11 / fast_pskip=1 / chroma_qp_offset=-2 / threads=6 / lookahead_threads=1 / sliced_threads=0 / slices=4 / nr=0 / decimate=1 / interlaced=0 / minigop=1 / stitchable=1 / constrained_intra=0 / bframes=2 / b_pyramid=0 / b_adapt=1 / b_bias=0 / direct=1 / weightb=1 / open_gop=1 / weightp=1 / keyint=24 / keyint_min=1 / scenecut=40 / intra_refresh=0 / rc_lookahead=24 / rc=2pass / mbtree=1 / bitrate=30000 / ratetol=1.0 / qcomp=0.60 / qpmin=3 / qpmax=69 / qpstep=4 / cplxblur=20.0 / qblur=0.5 / vbv_maxrate=35000 / vbv_bufsize=30000 / nal_hrd=vbr / filler=0 / ip_ratio=1.40 / aq=1:1.00
  29. Language                                 : English
  30. Default                                  : No
  31. Forced                                   : No
  32. Color range                              : Limited
  33. Color primaries                          : BT.709
  34. Transfer characteristics                 : BT.709
  35. Matrix coefficients                      : BT.709

  36. Audio #1
  37. ID                                       : 2
  38. Format                                   : PCM
  39. Format settings                          : Little / Signed
  40. Codec ID                                 : A_PCM/INT/LIT
  41. Duration                                 : 1 h 36 min
  42. Bit rate mode                            : Constant
  43. Bit rate                                 : 2 304 kb/s
  44. Channel(s)                               : 2 channels
  45. Sampling rate                            : 48.0 kHz
  46. Frame rate                               : 30.000 FPS (1600 SPF)
  47. Bit depth                                : 24 bits
  48. Stream size                              : 1.55 GiB (7%)
  49. Title                                    : Rats.Night.Of.Terror.1984.1080p.BluRay.REMUX.AVC.LPCM.2.0-FGT
  50. Language                                 : English
  51. Default                                  : Yes
  52. Forced                                   : No

  53. Audio #2
  54. ID                                       : 3
  55. Format                                   : PCM
  56. Format settings                          : Little / Signed
  57. Codec ID                                 : A_PCM/INT/LIT
  58. Duration                                 : 1 h 36 min
  59. Bit rate mode                            : Constant
  60. Bit rate                                 : 2 304 kb/s
  61. Channel(s)                               : 2 channels
  62. Sampling rate                            : 48.0 kHz
  63. Frame rate                               : 30.000 FPS (1600 SPF)
  64. Bit depth                                : 24 bits
  65. Stream size                              : 1.55 GiB (7%)
  66. Title                                    : Rats.Night.Of.Terror.1984.1080p.BluRay.REMUX.AVC.LPCM.2.0-FGT
  67. Language                                 : Italian
  68. Default                                  : No
  69. Forced                                   : No

  70. Text
  71. ID                                       : 4
  72. Format                                   : PGS
  73. Muxing mode                              : zlib
  74. Codec ID                                 : S_HDMV/PGS
  75. Codec ID/Info                            : Picture based subtitle format used on BDs/HD-DVDs
  76. Duration                                 : 1 h 31 min
  77. Bit rate                                 : 29.9 kb/s
  78. Count of elements                        : 1682
  79. Stream size                              : 19.5 MiB (0%)
  80. Title                                    : English-PGS
  81. Language                                 : English
  82. Default                                  : Yes
  83. Forced                                   : No

  84. Menu
  85. 00:00:00.000                             : en:Chapter 01
  86. 00:11:46.414                             : en:Chapter 02
  87. 00:27:13.423                             : en:Chapter 03
  88. 00:40:34.682                             : en:Chapter 04
  89. 00:54:30.850                             : en:Chapter 05
  90. 01:04:01.045                             : en:Chapter 06
  91. 01:15:10.839                             : en:Chapter 07
  92. 01:27:37.126                             : en:Chapter 08
  93. 01:36:30.409                             : en:Chapter 09
复制代码

复制代码

人肉鼠餐 Rats.Night.Of.Terror.1984.1080p.BluRay.REMUX.AVC.LPCM.2.0-FGT 23.34GB-2.png 人肉鼠餐 Rats.Night.Of.Terror.1984.1080p.BluRay.REMUX.AVC.LPCM.2.0-FGT 23.34GB-3.png 人肉鼠餐 Rats.Night.Of.Terror.1984.1080p.BluRay.REMUX.AVC.LPCM.2.0-FGT 23.34GB-4.png





回复

使用道具 举报

懒得打字嘛,点击右侧快捷回复 【右侧内容,后台自定义】
您需要登录后才可以回帖 登录 | 立即注册

本版积分规则

QQ|Archiver|手机版|小黑屋|中国高清网 |网站地图

GMT+8, 2019-3-22 10:29 , Processed in 0.150520 second(s), 41 queries .

Powered by HDchina X3.4

Copyright 2017-2018©HDchina.All right reserved

返回顶部 联系我们