你所知道的4K资源这里全部都有 4K电影 | 4K视频 | 4K壁纸 | 4K MV 怎么播放4K视频 | 4K电视演示片

教你玩转4K私人与家庭影院存储 NAS组装 | 黑群辉 家庭/影院Nas论坛

4K家庭影院信号源与视频设备知识 4K蓝光高清播放机 - 那个品牌好? 4K投影机论坛 | 4K电视机论坛

手把手教你搭建属于自己的家庭影院 4K家庭影院案例 | 家庭影院音频 4K家庭影院论坛

查看: 92|回复: 1

[REMUX.HEVC] 黑色党徒 BlacKkKlansman.2018.2160p.BluRay.REMUX.HEVC.DTS-HD.MA.TrueHD.7.1.Atmos-FGT 81.09GB

[复制链接]

 成长值: 120

级别:资源管理组

UID
1
注册时间
2017-10-20
最后登录
2019-1-21
听众
0
收听
0
主题
73918
蓝光币
116406 枚
贡献
143727 点
发表于 2018-11-9 09:45:30 | 显示全部楼层 |阅读模式
黑色党徒 BlacKkKlansman.2018.2160p.BluRay.REMUX.HEVC.DTS-HD.MA.TrueHD.7.1.Atmos-FGT 81.09GB-1.jpg
◎译  名 黑色党徒 / Black Klansman
◎片  名 黑色党徒 BlacKkKlansman
◎年  代 2018
◎国  家 美国
◎类  别 笑剧 / 列传 / 犯罪
◎语  言 英语
◎上映日期 2018-05-14(戛纳电影节) / 2018-08-10(美国)
◎IMDb评分  7.7/10 from 47,974 users
◎IMDb链接  http://www.imdb.com/title/tt7349662/
◎豆瓣评分 7.0/10 from 2859 users
◎豆瓣链接 https://movie.douban.com/subject/27133913/
◎片  长 135分钟
◎导  演 斯派克·李
◎主  演 约翰·大卫·华盛顿
      亚历克·鲍德温
      小伊塞亚·维特洛克
      罗伯特·约翰·伯克
      布赖恩·塔伦蒂诺
      阿瑟·J·纳斯加勒拉
      根·加里托
      弗雷德里克·韦勒
      亚当·德赖弗
      迈克尔·布谢米
      劳拉·哈里尔
      达马里斯·刘易斯
      科里·霍金斯
      法龙·索尔兹伯里
      瑞安·艾戈尔德
      加斯帕·帕科农
      保罗·沃尔特·豪泽
      阿什莉·阿特金森
      托弗·戈瑞斯
      维克托·科利采奇妙

◎简  介 

  《黑色党徒》按照2014年罗恩·斯塔尔沃斯所著的自传改编,报告了一位科罗拉多州的黑人差人,成功潜入当地的3K党构造做卧底的故事。

◎获奖情况 

  第71届戛纳电影节 (2018)
  主比赛单元 金棕榈奖(提名) 斯派克·李
  主比赛单元 评审团大奖 斯派克·李

  第71届洛迦诺国际电影节 (2018)
  观众挑选奖 斯派克·李

  第28届哥谭自力电影奖 (2018)
  最好男演员(提名) 亚当·德赖弗

  第22届好莱坞电影奖 (2018)
  年度冲破男演员 约翰·大卫·华盛顿


  1. Video #1
  2. ID                                       : 1
  3. Format                                   : HEVC
  4. Format/Info                              : High Efficiency Video Coding
  5. Commercial name                          : HDR10
  6. Format profile                           : Main [url=/cdn-cgi/l/email-protection][email protected][/url]@High
  7. Codec ID                                 : V_MPEGH/ISO/HEVC
  8. Duration                                 : 2 h 14 min
  9. Bit rate                                 : 68.6 Mb/s
  10. Width                                    : 3 840 pixels
  11. Height                                   : 2 160 pixels
  12. Display aspect ratio                     : 16:9
  13. Frame rate mode                          : Constant
  14. Frame rate                               : 23.976 (24000/1001) FPS
  15. Color space                              : YUV
  16. Chroma subsampling                       : 4:2:0 (Type 2)
  17. Bit depth                                : 10 bits
  18. Bits/(Pixel*Frame)                       : 0.345
  19. Stream size                              : 64.6 GiB (80%)
  20. Title                                    : BlacKkKlansman.2018.2160p.BluRay.REMUX.HEVC.DTS-HD.MA.TrueHD.7.1.Atmos-FGT
  21. Default                                  : Yes
  22. Forced                                   : No
  23. Color range                              : Limited
  24. Color primaries                          : BT.2020
  25. Transfer characteristics                 : PQ
  26. Matrix coefficients                      : BT.2020 non-constant
  27. Mastering display color primaries        : Display P3
  28. Mastering display luminance              : min: 0.0050 cd/m2, max: 1000 cd/m2
  29. Maximum Content Light Level              : 552 cd/m2
  30. Maximum Frame-Average Light Level        : 132 cd/m2

  31. Video #2
  32. ID                                       : 2
  33. Format                                   : HEVC
  34. Format/Info                              : High Efficiency Video Coding
  35. Commercial name                          : HDR10
  36. Format profile                           : Main [url=/cdn-cgi/l/email-protection][email protected][/url]@High
  37. Codec ID                                 : V_MPEGH/ISO/HEVC
  38. Duration                                 : 2 h 14 min
  39. Bit rate                                 : 7 338 kb/s
  40. Width                                    : 1 920 pixels
  41. Height                                   : 1 080 pixels
  42. Display aspect ratio                     : 16:9
  43. Frame rate mode                          : Constant
  44. Frame rate                               : 23.976 (24000/1001) FPS
  45. Color space                              : YUV
  46. Chroma subsampling                       : 4:2:0 (Type 2)
  47. Bit depth                                : 10 bits
  48. Bits/(Pixel*Frame)                       : 0.148
  49. Stream size                              : 6.91 GiB (9%)
  50. Title                                    : BlacKkKlansman.2018.2160p.BluRay.REMUX.HEVC.DTS-HD.MA.TrueHD.7.1.Atmos-FGT
  51. Default                                  : No
  52. Forced                                   : No
  53. Color range                              : Limited
  54. Color primaries                          : BT.2020
  55. Transfer characteristics                 : PQ
  56. Matrix coefficients                      : BT.2020 non-constant
  57. Mastering display color primaries        : Display P3
  58. Mastering display luminance              : min: 0.0050 cd/m2, max: 1000 cd/m2

  59. Audio #1
  60. ID                                       : 3
  61. Format                                   : MLP FBA 16-ch
  62. Format/Info                              : Meridian Lossless Packing FBA with 16-channel presentation
  63. Commercial name                          : Dolby TrueHD with Dolby Atmos
  64. Codec ID                                 : A_TRUEHD
  65. Duration                                 : 2 h 14 min
  66. Bit rate mode                            : Variable
  67. Bit rate                                 : 3 950 kb/s
  68. Maximum bit rate                         : 6 804 kb/s
  69. Channel(s)                               : 8 channels
  70. Channel layout                           : L R C LFE Ls Rs Lb Rb
  71. Sampling rate                            : 48.0 kHz
  72. Frame rate                               : 1 200.000 FPS (40 SPF)
  73. Compression mode                         : Lossless
  74. Stream size                              : 3.72 GiB (5%)
  75. Title                                    : BlacKkKlansman.2018.2160p.BluRay.REMUX.HEVC.DTS-HD.MA.TrueHD.7.1.Atmos-FGT
  76. Language                                 : English
  77. Default                                  : Yes
  78. Forced                                   : No
  79. Number of dynamic objects                : 11
  80. Bed channel count                        : 1 channel
  81. Bed channel configuration                : LFE

  82. Audio #2
  83. ID                                       : 4
  84. Format                                   : DTS XLL
  85. Format/Info                              : Digital Theater Systems
  86. Commercial name                          : DTS-HD Master Audio
  87. Codec ID                                 : A_DTS
  88. Duration                                 : 2 h 14 min
  89. Bit rate mode                            : Variable
  90. Bit rate                                 : 4 263 kb/s
  91. Channel(s)                               : 8 channels
  92. Channel layout                           : C L R LFE Lb Rb Lss Rss
  93. Sampling rate                            : 48.0 kHz
  94. Frame rate                               : 93.750 FPS (512 SPF)
  95. Bit depth                                : 24 bits
  96. Compression mode                         : Lossless
  97. Stream size                              : 4.01 GiB (5%)
  98. Title                                    : BlacKkKlansman.2018.2160p.BluRay.REMUX.HEVC.DTS-HD.MA.TrueHD.7.1.Atmos-FGT
  99. Language                                 : English
  100. Default                                  : No
  101. Forced                                   : No

  102. Audio #3
  103. ID                                       : 5
  104. Format                                   : AC-3
  105. Format/Info                              : Audio Coding 3
  106. Commercial name                          : Dolby Digital
  107. Codec ID                                 : A_AC3
  108. Duration                                 : 2 h 14 min
  109. Bit rate mode                            : Constant
  110. Bit rate                                 : 448 kb/s
  111. Channel(s)                               : 6 channels
  112. Channel layout                           : L R C LFE Ls Rs
  113. Sampling rate                            : 48.0 kHz
  114. Frame rate                               : 31.250 FPS (1536 SPF)
  115. Bit depth                                : 16 bits
  116. Compression mode                         : Lossy
  117. Stream size                              : 432 MiB (1%)
  118. Title                                    : BlacKkKlansman.2018.2160p.BluRay.REMUX.HEVC.DTS-HD.MA.TrueHD.7.1.Atmos-FGT
  119. Language                                 : English
  120. Service kind                             : Complete Main
  121. Default                                  : No
  122. Forced                                   : No

  123. Audio #4
  124. ID                                       : 6
  125. Format                                   : AC-3
  126. Format/Info                              : Audio Coding 3
  127. Commercial name                          : Dolby Digital
  128. Codec ID                                 : A_AC3
  129. Duration                                 : 2 h 14 min
  130. Bit rate mode                            : Constant
  131. Bit rate                                 : 640 kb/s
  132. Channel(s)                               : 6 channels
  133. Channel layout                           : L R C LFE Ls Rs
  134. Sampling rate                            : 48.0 kHz
  135. Frame rate                               : 31.250 FPS (1536 SPF)
  136. Bit depth                                : 16 bits
  137. Compression mode                         : Lossy
  138. Stream size                              : 617 MiB (1%)
  139. Title                                    : BlacKkKlansman.2018.2160p.BluRay.REMUX.HEVC.DTS-HD.MA.TrueHD.7.1.Atmos-FGT
  140. Language                                 : Spanish
  141. Service kind                             : Complete Main
  142. Default                                  : No
  143. Forced                                   : No

  144. Audio #5
  145. ID                                       : 7
  146. Format                                   : E-AC-3
  147. Format/Info                              : Enhanced AC-3
  148. Commercial name                          : Dolby Digital Plus
  149. Format profile                           : Blu-ray Disc
  150. Codec ID                                 : A_EAC3
  151. Duration                                 : 2 h 14 min
  152. Bit rate mode                            : Constant
  153. Bit rate                                 : 768 kb/s
  154. Channel(s)                               : 8 channels
  155. Channel layout                           : L R C LFE Ls Rs Lb Rb
  156. Sampling rate                            : 48.0 kHz
  157. Frame rate                               : 31.250 FPS (1536 SPF)
  158. Compression mode                         : Lossy
  159. Stream size                              : 741 MiB (1%)
  160. Title                                    : BlacKkKlansman.2018.2160p.BluRay.REMUX.HEVC.DTS-HD.MA.TrueHD.7.1.Atmos-FGT
  161. Language                                 : French
  162. Service kind                             : Complete Main
  163. Default                                  : No
  164. Forced                                   : No

  165. Text #1
  166. ID                                       : 8
  167. Format                                   : PGS
  168. Muxing mode                              : zlib
  169. Codec ID                                 : S_HDMV/PGS
  170. Codec ID/Info                            : Picture based subtitle format used on BDs/HD-DVDs
  171. Duration                                 : 2 h 8 min
  172. Bit rate                                 : 60.7 kb/s
  173. Count of elements                        : 5274
  174. Stream size                              : 55.7 MiB (0%)
  175. Title                                    : English-PGS
  176. Language                                 : English
  177. Default                                  : Yes
  178. Forced                                   : No

  179. Text #2
  180. ID                                       : 9
  181. Format                                   : PGS
  182. Muxing mode                              : zlib
  183. Codec ID                                 : S_HDMV/PGS
  184. Codec ID/Info                            : Picture based subtitle format used on BDs/HD-DVDs
  185. Duration                                 : 2 h 13 min
  186. Bit rate                                 : 54.2 kb/s
  187. Count of elements                        : 5310
  188. Stream size                              : 51.6 MiB (0%)
  189. Title                                    : Spanish-PGS
  190. Language                                 : Spanish
  191. Default                                  : No
  192. Forced                                   : No

  193. Text #3
  194. ID                                       : 10
  195. Format                                   : PGS
  196. Muxing mode                              : zlib
  197. Codec ID                                 : S_HDMV/PGS
  198. Codec ID/Info                            : Picture based subtitle format used on BDs/HD-DVDs
  199. Duration                                 : 2 h 13 min
  200. Bit rate                                 : 48.4 kb/s
  201. Count of elements                        : 4893
  202. Stream size                              : 46.4 MiB (0%)
  203. Title                                    : French-PGS
  204. Language                                 : French
  205. Default                                  : No
  206. Forced                                   : No

  207. Text #4
  208. ID                                       : 11
  209. Format                                   : PGS
  210. Muxing mode                              : zlib
  211. Codec ID                                 : S_HDMV/PGS
  212. Codec ID/Info                            : Picture based subtitle format used on BDs/HD-DVDs
  213. Duration                                 : 2 h 12 min
  214. Bit rate                                 : 1 374 b/s
  215. Count of elements                        : 116
  216. Stream size                              : 1.30 MiB (0%)
  217. Title                                    : Spanish-FORCED-PGS
  218. Language                                 : Spanish
  219. Default                                  : No
  220. Forced                                   : No

  221. Text #5
  222. ID                                       : 12
  223. Format                                   : PGS
  224. Muxing mode                              : zlib
  225. Codec ID                                 : S_HDMV/PGS
  226. Codec ID/Info                            : Picture based subtitle format used on BDs/HD-DVDs
  227. Duration                                 : 2 h 13 min
  228. Bit rate                                 : 1 575 b/s
  229. Count of elements                        : 128
  230. Stream size                              : 1.51 MiB (0%)
  231. Title                                    : French-FORCED-PGS
  232. Language                                 : French
  233. Default                                  : No
  234. Forced                                   : No

  235. Menu
  236. 00:00:00.000                             : :Chapter 1
  237. 00:04:10.250                             : :Chapter 2
  238. 00:13:54.875                             : :Chapter 3
  239. 00:23:16.603                             : :Chapter 4
  240. 00:27:56.508                             : :Chapter 5
  241. 00:36:10.668                             : :Chapter 6
  242. 00:43:21.557                             : :Chapter 7
  243. 00:48:30.616                             : :Chapter 8
  244. 00:54:58.628                             : :Chapter 9
  245. 00:59:48.543                             : :Chapter 10
  246. 01:07:04.770                             : :Chapter 11
  247. 01:16:37.801                             : :Chapter 12
  248. 01:22:20.393                             : :Chapter 13
  249. 01:29:38.122                             : :Chapter 14
  250. 01:39:10.653                             : :Chapter 15
  251. 01:48:27.042                             : :Chapter 16
  252. 01:56:05.583                             : :Chapter 17
  253. 02:00:43.945                             : :Chapter 18
  254. 02:03:57.430                             : :Chapter 19
  255. 02:09:03.569                             : :Chapter 20
复制代码

复制代码

黑色党徒 BlacKkKlansman.2018.2160p.BluRay.REMUX.HEVC.DTS-HD.MA.TrueHD.7.1.Atmos-FGT 81.09GB-2.png 黑色党徒 BlacKkKlansman.2018.2160p.BluRay.REMUX.HEVC.DTS-HD.MA.TrueHD.7.1.Atmos-FGT 81.09GB-3.png 黑色党徒 BlacKkKlansman.2018.2160p.BluRay.REMUX.HEVC.DTS-HD.MA.TrueHD.7.1.Atmos-FGT 81.09GB-4.png





本帖隐藏的下载地址需要VIP会员才可阅读,您需要升级才可阅读,点击这里升级VIP

回复

使用道具 举报

级别:专业龙套 Lv.4

UID
9231
注册时间
2018-10-31
最后登录
2019-1-22
听众
0
收听
0
主题
0
蓝光币
666 枚
贡献
0 点
QQ
发表于 2018-11-25 20:18:42 | 显示全部楼层
我看不错噢 谢谢楼主!
回复

使用道具 举报

懒得打字嘛,点击右侧快捷回复 【右侧内容,后台自定义】
您需要登录后才可以回帖 登录 | 立即注册

本版积分规则

QQ|Archiver|手机版|小黑屋|中国高清网 |网站地图

GMT+8, 2019-1-22 07:41 , Processed in 0.175848 second(s), 41 queries .

Powered by HDchina X3.4

Copyright 2017-2018©HDchina.All right reserved

返回顶部 联系我们