你所知道的4K资源这里全部都有 4K电影 | 4K视频 | 4K壁纸 | 4K MV 怎么播放4K视频 | 4K电视演示片

教你玩转4K私人与家庭影院存储 NAS组装 | 黑群辉 家庭/影院Nas论坛

4K家庭影院信号源与视频设备知识 4K蓝光高清播放机 - 那个品牌好? 4K投影机论坛 | 4K电视机论坛

手把手教你搭建属于自己的家庭影院 4K家庭影院案例 | 家庭影院音频 4K家庭影院论坛

查看: 165|回复: 3

[10bit.SDR] 守法公民/重案对决 Law.Abiding.Citizen.2009.2160p.BluRay.x265.10bit.SDR.DTS-HD.MA.TrueHD.7.1.Atmos-SWTYBLZ 29.55GB

[复制链接]

 成长值: 1040

级别:资源管理组

注册时间
2017-10-20
最后登录
2019-4-23
听众
0
收听
0
主题
76979
蓝光币
8521 枚
贡献
1287 点
发表于 2018-11-9 09:43:58 | 显示全部楼层 |阅读模式
遵法百姓/重案对决 Law.Abiding.Citizen.2009.2160p.BluRay.x265.10bit.SDR.DTS-HD.MA.TrueHD.7.1.Atmos-SWTYBLZ 29.55GB-1.jpg
◎译  名 遵法百姓 / 重案对决 / 知法玩法
◎片  名 遵法百姓 Law Abiding Citizen
◎年  代 2009
◎国  家 美国
◎类  别 剧情 / 惊悚 / 犯罪
◎语  言 英语
◎上映日期 2009-10-16
◎IMDb评分  7.4/10 from 244,592 users
◎IMDb链接  http://www.imdb.com/title/tt1197624/
◎豆瓣评分 7.9/10 from 69858 users
◎豆瓣链接 https://movie.douban.com/subject/3009161/
◎片  长 108 分钟 / 118 分钟(director's cut)
◎导  演 F·加里·格雷
◎主  演 杰米·福克斯
      杰拉德·巴特勒
      科尔姆·米尼
      布鲁斯·麦克吉尔
      莱丝莉·比伯
      维奥拉·戴维斯

◎简  介 

  克莱德·谢尔顿(格莱德·巴特勒 Gerard Butler 饰)是居住在费城某小镇的一位研发职员,他有着美丽的妻子和心爱的女儿,生活幸运完竣。但这一切都被突如其来的灾难所摧毁。某晚,两个大盗闯入他的家中,妻子和女儿都遭到摧残。但是虽然证据确实,但由于司法法式的陈腐和尼克·瑞斯(杰米·福克斯 Jamie Foxx 饰)助理履行官的出错,终极让首犯克拉伦斯·多比(克里斯蒂安·斯多特 Christian Stolte 饰)因证据不敷只获得10年徒刑。
  本以为一切归于寂静,但10年后昔时未了的风浪复兴。怀着庞大冤仇的克莱德起头筹划展开报复,先是干掉了昔时的从犯阿米,接着他很快找到了邪恶无耻的多比,并对其停止残暴的熬煎与虐杀。克莱德的冤仇获得庞大的宣泄,可是他的复仇还未就此停止。他所针对的不但是那两个大盗,而是全部腐败出错的司法系统……


  1. Video
  2. ID                                       : 1
  3. Format                                   : HEVC
  4. Format/Info                              : High Efficiency Video Coding
  5. Format profile                           : Main [url=/cdn-cgi/l/email-protection][email protected][/url]@High
  6. Codec ID                                 : V_MPEGH/ISO/HEVC
  7. Duration                                 : 1 h 49 min
  8. Bit rate                                 : 29.7 Mb/s
  9. Width                                    : 3 840 pixels
  10. Height                                   : 1 600 pixels
  11. Display aspect ratio                     : 2.40:1
  12. Frame rate mode                          : Constant
  13. Frame rate                               : 23.976 (24000/1001) FPS
  14. Color space                              : YUV
  15. Chroma subsampling                       : 4:2:0
  16. Bit depth                                : 10 bits
  17. Bits/(Pixel*Frame)                       : 0.201
  18. Stream size                              : 22.6 GiB (77%)
  19. Title                                    : Law.Abiding.Citizen.2009.2160p.BluRay.x265.10bit.SDR.DTS-HD.MA.TrueHD.7.1.Atmos-SWTYBLZ
  20. Writing library                          : x265 2.9+4-471726d3a046:[Windows][GCC 8.2.0][64 bit] 10bit
  21. Encoding settings                        : cpuid=1111039 / frame-threads=16 / numa-pools=24,24,24,24 / wpp / no-pmode / no-pme / no-psnr / no-ssim / log-level=2 / input-csp=1 / input-res=3840x1600 / interlace=0 / total-frames=157207 / level-idc=51 / high-tier=1 / uhd-bd=0 / ref=3 / no-allow-non-conformance / repeat-headers / annexb / aud / hrd / info / hash=0 / no-temporal-layers / no-open-gop / min-keyint=1 / keyint=24 / gop-lookahead=0 / bframes=4 / b-adapt=2 / b-pyramid / bframe-bias=0 / rc-lookahead=25 / lookahead-slices=4 / scenecut=40 / radl=0 / no-intra-refresh / ctu=64 / min-cu-size=8 / no-rect / no-amp / max-tu-size=32 / tu-inter-depth=1 / tu-intra-depth=1 / limit-tu=0 / rdoq-level=0 / dynamic-rd=0.00 / no-ssim-rd / signhide / no-tskip / nr-intra=0 / nr-inter=0 / no-constrained-intra / strong-intra-smoothing / max-merge=2 / limit-refs=3 / no-limit-modes / me=1 / subme=2 / merange=57 / temporal-mvp / weightp / no-weightb / no-analyze-src-pics / deblock=0:0 / no-sao / no-sao-non-deblock / rd=3 / no-early-skip / rskip / no-fast-intra / no-tskip-fast / no-cu-lossless / no-b-intra / no-splitrd-skip / rdpenalty=0 / psy-rd=2.00 / psy-rdoq=0.00 / no-rd-refine / no-lossless / cbqpoffs=0 / crqpoffs=0 / rc=crf / crf=16.0 / qcomp=0.60 / qpstep=4 / stats-write=0 / stats-read=0 / vbv-maxrate=160000 / vbv-bufsize=160000 / vbv-init=0.9 / crf-max=0.0 / crf-min=0.0 / ipratio=1.40 / pbratio=1.30 / aq-mode=1 / aq-strength=1.00 / cutree / zone-count=0 / no-strict-cbr / qg-size=32 / no-rc-grain / qpmax=69 / qpmin=0 / no-const-vbv / sar=1 / overscan=0 / videoformat=5 / range=0 / colorprim=2 / transfer=2 / colormatrix=2 / chromaloc=0 / display-window=0 / max-cll=0,0 / min-luma=0 / max-luma=1023 / log2-max-poc-lsb=8 / vui-timing-info / vui-hrd-info / slices=1 / opt-qp-pps / opt-ref-list-length-pps / no-multi-pass-opt-rps / scenecut-bias=0.05 / no-opt-cu-delta-qp / no-aq-motion / no-hdr / no-hdr-opt / no-dhdr10-opt / no-idr-recovery-sei / analysis-reuse-level=5 / scale-factor=0 / refine-intra=0 / refine-inter=0 / refine-mv=0 / no-limit-sao / ctu-info=0 / no-lowpass-dct / refine-mv-type=0 / copy-pic=1 / max-ausize-factor=1.0 / no-dynamic-refine / no-single-sei
  22. Default                                  : Yes
  23. Forced                                   : No

  24. Audio #1
  25. ID                                       : 2
  26. Format                                   : MLP FBA 16-ch
  27. Format/Info                              : Meridian Lossless Packing FBA with 16-channel presentation
  28. Commercial name                          : Dolby TrueHD with Dolby Atmos
  29. Codec ID                                 : A_TRUEHD
  30. Duration                                 : 1 h 49 min
  31. Bit rate mode                            : Variable
  32. Bit rate                                 : 4 186 kb/s
  33. Maximum bit rate                         : 7 701 kb/s
  34. Channel(s)                               : 8 channels
  35. Channel layout                           : L R C LFE Ls Rs Lb Rb
  36. Sampling rate                            : 48.0 kHz
  37. Frame rate                               : 1 200.000 FPS (40 SPF)
  38. Compression mode                         : Lossless
  39. Stream size                              : 3.20 GiB (11%)
  40. Title                                    : Law.Abiding.Citizen.2009.2160p.BluRay.x265.10bit.SDR.DTS-HD.MA.TrueHD.7.1.Atmos-SWTYBLZ
  41. Language                                 : English
  42. Default                                  : Yes
  43. Forced                                   : No
  44. Number of dynamic objects                : 15
  45. Bed channel count                        : 1 channel
  46. Bed channel configuration                : LFE

  47. Audio #2
  48. ID                                       : 3
  49. Format                                   : DTS XLL
  50. Format/Info                              : Digital Theater Systems
  51. Commercial name                          : DTS-HD Master Audio
  52. Codec ID                                 : A_DTS
  53. Duration                                 : 1 h 49 min
  54. Bit rate mode                            : Variable
  55. Bit rate                                 : 3 842 kb/s
  56. Channel(s)                               : 8 channels
  57. Channel layout                           : C L R LFE Lb Rb Lss Rss
  58. Sampling rate                            : 48.0 kHz
  59. Frame rate                               : 93.750 FPS (512 SPF)
  60. Bit depth                                : 24 bits
  61. Compression mode                         : Lossless
  62. Stream size                              : 2.93 GiB (10%)
  63. Title                                    : Law.Abiding.Citizen.2009.2160p.BluRay.x265.10bit.SDR.DTS-HD.MA.TrueHD.7.1.Atmos-SWTYBLZ
  64. Language                                 : English
  65. Default                                  : No
  66. Forced                                   : No

  67. Audio #3
  68. ID                                       : 4
  69. Format                                   : AC-3
  70. Format/Info                              : Audio Coding 3
  71. Commercial name                          : Dolby Digital
  72. Codec ID                                 : A_AC3
  73. Duration                                 : 1 h 49 min
  74. Bit rate mode                            : Constant
  75. Bit rate                                 : 640 kb/s
  76. Channel(s)                               : 6 channels
  77. Channel layout                           : L R C LFE Ls Rs
  78. Sampling rate                            : 48.0 kHz
  79. Frame rate                               : 31.250 FPS (1536 SPF)
  80. Bit depth                                : 16 bits
  81. Compression mode                         : Lossy
  82. Stream size                              : 500 MiB (2%)
  83. Title                                    : Law.Abiding.Citizen.2009.2160p.BluRay.x265.10bit.SDR.DTS-HD.MA.TrueHD.7.1.Atmos-SWTYBLZ
  84. Language                                 : English
  85. Service kind                             : Complete Main
  86. Default                                  : No
  87. Forced                                   : No

  88. Text #1
  89. ID                                       : 5
  90. Format                                   : UTF-8
  91. Codec ID                                 : S_TEXT/UTF8
  92. Codec ID/Info                            : UTF-8 Plain Text
  93. Duration                                 : 1 h 37 min
  94. Bit rate                                 : 65 b/s
  95. Count of elements                        : 1287
  96. Stream size                              : 46.9 KiB (0%)
  97. Title                                    : English-SRT
  98. Language                                 : English
  99. Default                                  : Yes
  100. Forced                                   : No

  101. Text #2
  102. ID                                       : 6
  103. Format                                   : UTF-8
  104. Codec ID                                 : S_TEXT/UTF8
  105. Codec ID/Info                            : UTF-8 Plain Text
  106. Duration                                 : 1 h 44 min
  107. Bit rate                                 : 63 b/s
  108. Count of elements                        : 1294
  109. Stream size                              : 48.2 KiB (0%)
  110. Title                                    : English-SDH-SRT
  111. Language                                 : English
  112. Default                                  : No
  113. Forced                                   : No

  114. Text #3
  115. ID                                       : 7
  116. Format                                   : PGS
  117. Muxing mode                              : zlib
  118. Codec ID                                 : S_HDMV/PGS
  119. Codec ID/Info                            : Picture based subtitle format used on BDs/HD-DVDs
  120. Duration                                 : 1 h 37 min
  121. Bit rate                                 : 39.8 kb/s
  122. Count of elements                        : 2574
  123. Stream size                              : 27.9 MiB (0%)
  124. Title                                    : English-PGS
  125. Language                                 : English
  126. Default                                  : No
  127. Forced                                   : No

  128. Text #4
  129. ID                                       : 8
  130. Format                                   : PGS
  131. Muxing mode                              : zlib
  132. Codec ID                                 : S_HDMV/PGS
  133. Codec ID/Info                            : Picture based subtitle format used on BDs/HD-DVDs
  134. Duration                                 : 1 h 45 min
  135. Bit rate                                 : 40.2 kb/s
  136. Count of elements                        : 2826
  137. Stream size                              : 30.3 MiB (0%)
  138. Title                                    : English-SDH-PGS
  139. Language                                 : English
  140. Default                                  : No
  141. Forced                                   : No

  142. Text #5
  143. ID                                       : 9
  144. Format                                   : PGS
  145. Muxing mode                              : zlib
  146. Codec ID                                 : S_HDMV/PGS
  147. Codec ID/Info                            : Picture based subtitle format used on BDs/HD-DVDs
  148. Duration                                 : 1 h 47 min
  149. Bit rate                                 : 35.2 kb/s
  150. Count of elements                        : 2502
  151. Stream size                              : 27.1 MiB (0%)
  152. Title                                    : Spanish-PGS
  153. Language                                 : Spanish
  154. Default                                  : No
  155. Forced                                   : No

  156. Menu
  157. 00:00:00.000                             : :Chapter 1
  158. 00:05:58.149                             : :Chapter 2
  159. 00:12:14.066                             : :Chapter 3
  160. 00:18:41.870                             : :Chapter 4
  161. 00:26:56.448                             : :Chapter 5
  162. 00:32:38.081                             : :Chapter 6
  163. 00:40:16.038                             : :Chapter 7
  164. 00:44:11.649                             : :Chapter 8
  165. 00:47:28.262                             : :Chapter 9
  166. 00:58:09.319                             : :Chapter 10
  167. 01:06:15.554                             : :Chapter 11
  168. 01:11:13.185                             : :Chapter 12
  169. 01:16:45.767                             : :Chapter 13
  170. 01:24:12.797                             : :Chapter 14
  171. 01:35:39.817                             : :Chapter 15
  172. 01:40:39.700                             : :Chapter 16
复制代码

复制代码

遵法百姓/重案对决 Law.Abiding.Citizen.2009.2160p.BluRay.x265.10bit.SDR.DTS-HD.MA.TrueHD.7.1.Atmos-SWTYBLZ 29.55GB-2.png 遵法百姓/重案对决 Law.Abiding.Citizen.2009.2160p.BluRay.x265.10bit.SDR.DTS-HD.MA.TrueHD.7.1.Atmos-SWTYBLZ 29.55GB-3.png 遵法百姓/重案对决 Law.Abiding.Citizen.2009.2160p.BluRay.x265.10bit.SDR.DTS-HD.MA.TrueHD.7.1.Atmos-SWTYBLZ 29.55GB-4.png 遵法百姓/重案对决 Law.Abiding.Citizen.2009.2160p.BluRay.x265.10bit.SDR.DTS-HD.MA.TrueHD.7.1.Atmos-SWTYBLZ 29.55GB-5.png 遵法百姓/重案对决 Law.Abiding.Citizen.2009.2160p.BluRay.x265.10bit.SDR.DTS-HD.MA.TrueHD.7.1.Atmos-SWTYBLZ 29.55GB-6.png 遵法百姓/重案对决 Law.Abiding.Citizen.2009.2160p.BluRay.x265.10bit.SDR.DTS-HD.MA.TrueHD.7.1.Atmos-SWTYBLZ 29.55GB-7.png 遵法百姓/重案对决 Law.Abiding.Citizen.2009.2160p.BluRay.x265.10bit.SDR.DTS-HD.MA.TrueHD.7.1.Atmos-SWTYBLZ 29.55GB-8.png





本帖隐藏的下载地址需要VIP会员才可阅读,您需要升级才可阅读,点击这里升级VIP

回复

使用道具 举报

级别:群众演员 Lv.3

注册时间
2018-6-9
最后登录
2019-4-20
听众
5
收听
0
主题
0
蓝光币
47 枚
贡献
0 点
发表于 2018-11-12 18:26:01 | 显示全部楼层
谢谢分享
回复

使用道具 举报

级别:普通观众 Lv.2

注册时间
2018-1-5
最后登录
2019-2-24
听众
1
收听
0
主题
0
蓝光币
39 枚
贡献
0 点
发表于 2018-11-25 12:26:38 | 显示全部楼层
此片非常经典!找了好几个版本,都下不完整!希望这个可以!
回复

使用道具 举报

级别:荣升主角 Lv.5

注册时间
2018-10-31
最后登录
2019-4-23
听众
2
收听
0
主题
0
蓝光币
1073 枚
贡献
0 点
QQ
发表于 2018-11-25 20:16:53 | 显示全部楼层
我看不错噢 谢谢楼主!
回复

使用道具 举报

懒得打字嘛,点击右侧快捷回复 【右侧内容,后台自定义】
您需要登录后才可以回帖 登录 | 立即注册

本版积分规则

QQ|Archiver|手机版|小黑屋|中国高清网  |网站地图

GMT+8, 2019-4-23 17:54 , Processed in 0.182454 second(s), 42 queries .

Powered by HDchina X3.4

Copyright 2017-2018©HDchina.All right reserved

返回顶部 联系我们