你所知道的4K资源这里全部都有 4K电影 | 4K视频 | 4K壁纸 | 4K MV 怎么播放4K视频 | 4K电视演示片

教你玩转4K私人与家庭影院存储 NAS组装 | 黑群辉 家庭/影院Nas论坛

4K家庭影院信号源与视频设备知识 4K蓝光高清播放机 - 那个品牌好? 4K投影机论坛 | 4K电视机论坛

手把手教你搭建属于自己的家庭影院 4K家庭影院案例 | 家庭影院音频 4K家庭影院论坛

查看: 94|回复: 1

[10bit.SDR] 无敌破坏王/破坏王拉尔夫 Wreck-It.Ralph.2012.2160p.BluRay.x265.10bit.SDR.TrueHD.7.1.Atmos-SWTYBLZ 17.45GB

[复制链接]

 成长值: 120

级别:资源管理组

UID
1
注册时间
2017-10-20
最后登录
2019-1-21
听众
0
收听
0
主题
73918
蓝光币
116406 枚
贡献
143727 点
发表于 2018-11-9 09:42:39 | 显示全部楼层 |阅读模式
无敌破坏王/破坏王拉尔夫 Wreck-It.Ralph.2012.2160p.BluRay.x265.10bit.SDR.TrueHD.7.1.Atmos-SWTYBLZ 17.45GB-1.jpg
◎译  名 无敌破坏王 / 破坏王拉尔夫 / 破坏王大冒险
◎片  名 无敌破坏王 Wreck-It Ralph
◎年  代 2012
◎国  家 美国
◎类  别 笑剧 / 动画 / 奇异 / 冒险
◎语  言 英语
◎上映日期 2012-11-06(中国大陆) / 2012-11-02(美国)
◎IMDb评分  7.7/10 from 319,842 users
◎IMDb链接  http://www.imdb.com/title/tt1772341/
◎豆瓣评分 8.7/10 from 215739 users
◎豆瓣链接 https://movie.douban.com/subject/6534248/
◎片  长 101分钟
◎导  演 瑞奇·摩尔
◎主  演 约翰·C·赖利
      萨拉·西尔弗曼
      杰克·麦克布瑞尔
      简·林奇
      艾伦·图代克
      敏迪·卡灵
      乔·洛·特鲁格里奥
      艾德·奥尼尔
      丹尼斯·海斯伯特
      伊迪·迈克莱尔
      雷蒙德·S·佩尔西
      杰斯·哈梅尔
      瑞秋·哈里斯
      斯盖拉·阿斯丁
      亚当·卡罗拉
      霍拉提奥·桑斯
      莫里斯·拉马奇
      斯戴芬妮·斯考特
      约翰·迪·玛吉欧
      瑞奇·摩尔
      凯蒂·洛斯
      贾米·埃曼
      乔西·挺拔尼达
      辛贝·沃克
      塔克·吉莫尔
      布兰登·斯考特
      蒂姆·梅尔滕斯
      凯文·迪特斯
      杰洛·里佛斯
      马丁·贾维斯
      布莱恩·克辛格
      罗杰·克莱格·史姑娘
      菲尔·约翰斯顿
      鲁本·兰登
      凯尔·赫伯特
      洁米·斯贝勒·罗伯茨
      尼克·格里姆肖

◎简  介 

  无敌破坏王(约翰·C·赖利 John C. Reilly 配音)生活在一个80年月出品的低精度游戏中。他的设定身份是一个反派,天天的生活就是在游戏《快手阿修》中大搞破坏,厥后由玩家操纵的豪杰人物快手阿修(杰克·麦克布瑞尔 Jack McBrayer 配音) 会实时赶到停止修补,赢得奖牌,包揽一切光荣。身为反派,破坏王厌倦了自己的生活,眼看阿修被成功者的光环围绕,自己却日复一日在无趣中过活,他终究决议改变。纯真的他以为只要自己也能获得一枚奖牌,便可以摆脱反派的身份,因而某日在游戏厅停业后,破坏王偷偷分开了自己的游戏,前往闯荡其他电子游戏的天下。
  在途中,破坏王结识了来自《豪杰使命》的刻毒队长(简·林奇 Jane Lynch 配音)和来自90年月糖果赛车游戏《甜蜜冲刺》的小女孩云妮(萨拉·丝沃曼 Sarah Silverman 配音)。后者胡想着能上场角逐,但其身份也不答应她胡想成真。破坏王所属的游戏《快手阿修》由于落空了他被认定为系统毛病,如不尽快返回,则游戏就会被永久删除;而《甜蜜冲刺》的游戏天下则在静静酝酿着一场庞大的、威胁到全部游戏天下的诡计。这也许是无敌破坏王实现胡想的机遇,但也能够是一条不归路…… 他可以改变乾坤,成为一位实在的豪杰吗?

◎获奖情况 

  第85届奥斯卡金像奖 (2013)
  最好动画长片(提名) 瑞奇·摩尔

  第70届金球奖 (2013)
  电影类 最好动画长片(提名)

  第40届动画安妮奖 (2013)
  最好动画长片
  最好导演 瑞奇·摩尔
  最好编剧 菲尔·约翰斯顿 /  珍妮弗·李
  最好配音 艾伦·图代克
  最好配乐 Jamie Houston /  亨利·杰克曼 /  秋元康 /  亚当·杨
  最好剪辑(提名)
  最好分镜(提名)
  最好脚色设想(提名) Minkyu Lee
  最好动画结果(提名)

  第84届美国国家批评协会奖 (2013)
  最好动画片

  第18届美国批评家挑选电影奖 (2013)
  最好动画片

  第17届金卫星奖 (2012)
  电影部分 最好动画片(提名)

  第11届华盛顿影评人协会奖 (2012)
  最好动画片(提名)

  第17届圣地亚哥影评人协会奖 (2012)
  最好动画片(提名)

  第25届芝加哥影评人协会奖 (2012)
  最好动画片(提名)

  第12届凤凰城影评人协会奖 (2012)
  最好原创歌曲(提名) 亚当·杨
  最好动画片

  第3届豆瓣电影鑫像奖 (2013)
  鑫豆单元 最好动画长片


  1. Video
  2. ID                                       : 1
  3. Format                                   : HEVC
  4. Format/Info                              : High Efficiency Video Coding
  5. Format profile                           : Main [url=/cdn-cgi/l/email-protection][email protected][/url]@High
  6. Codec ID                                 : V_MPEGH/ISO/HEVC
  7. Duration                                 : 1 h 41 min
  8. Bit rate                                 : 19.1 Mb/s
  9. Width                                    : 3 840 pixels
  10. Height                                   : 1 608 pixels
  11. Display aspect ratio                     : 2.40:1
  12. Frame rate mode                          : Constant
  13. Frame rate                               : 23.976 (24000/1001) FPS
  14. Color space                              : YUV
  15. Chroma subsampling                       : 4:2:0
  16. Bit depth                                : 10 bits
  17. Bits/(Pixel*Frame)                       : 0.129
  18. Stream size                              : 13.5 GiB (78%)
  19. Title                                    : Wreck-It.Ralph.2012.2160p.BluRay.x265.10bit.SDR.TrueHD.7.1.Atmos-SWTYBLZ
  20. Writing library                          : x265 2.9+4-471726d3a046:[Windows][GCC 8.2.0][64 bit] 10bit
  21. Encoding settings                        : cpuid=1111039 / frame-threads=16 / numa-pools=20 / wpp / no-pmode / no-pme / no-psnr / no-ssim / log-level=2 / input-csp=1 / input-res=3840x1608 / interlace=0 / total-frames=145639 / level-idc=51 / high-tier=1 / uhd-bd=0 / ref=3 / no-allow-non-conformance / repeat-headers / annexb / aud / hrd / info / hash=0 / no-temporal-layers / no-open-gop / min-keyint=1 / keyint=24 / gop-lookahead=0 / bframes=4 / b-adapt=2 / b-pyramid / bframe-bias=0 / rc-lookahead=25 / lookahead-slices=4 / scenecut=40 / radl=0 / no-intra-refresh / ctu=64 / min-cu-size=8 / no-rect / no-amp / max-tu-size=32 / tu-inter-depth=1 / tu-intra-depth=1 / limit-tu=0 / rdoq-level=0 / dynamic-rd=0.00 / no-ssim-rd / signhide / no-tskip / nr-intra=0 / nr-inter=0 / no-constrained-intra / strong-intra-smoothing / max-merge=2 / limit-refs=3 / no-limit-modes / me=1 / subme=2 / merange=57 / temporal-mvp / weightp / no-weightb / no-analyze-src-pics / deblock=0:0 / no-sao / no-sao-non-deblock / rd=3 / no-early-skip / rskip / no-fast-intra / no-tskip-fast / no-cu-lossless / no-b-intra / no-splitrd-skip / rdpenalty=0 / psy-rd=2.00 / psy-rdoq=0.00 / no-rd-refine / no-lossless / cbqpoffs=0 / crqpoffs=0 / rc=crf / crf=16.0 / qcomp=0.60 / qpstep=4 / stats-write=0 / stats-read=0 / vbv-maxrate=160000 / vbv-bufsize=160000 / vbv-init=0.9 / crf-max=0.0 / crf-min=0.0 / ipratio=1.40 / pbratio=1.30 / aq-mode=1 / aq-strength=1.00 / cutree / zone-count=0 / no-strict-cbr / qg-size=32 / no-rc-grain / qpmax=69 / qpmin=0 / no-const-vbv / sar=1 / overscan=0 / videoformat=5 / range=0 / colorprim=2 / transfer=2 / colormatrix=2 / chromaloc=0 / display-window=0 / max-cll=0,0 / min-luma=0 / max-luma=1023 / log2-max-poc-lsb=8 / vui-timing-info / vui-hrd-info / slices=1 / opt-qp-pps / opt-ref-list-length-pps / no-multi-pass-opt-rps / scenecut-bias=0.05 / no-opt-cu-delta-qp / no-aq-motion / no-hdr / no-hdr-opt / no-dhdr10-opt / no-idr-recovery-sei / analysis-reuse-level=5 / scale-factor=0 / refine-intra=0 / refine-inter=0 / refine-mv=0 / no-limit-sao / ctu-info=0 / no-lowpass-dct / refine-mv-type=0 / copy-pic=1 / max-ausize-factor=1.0 / no-dynamic-refine / no-single-sei
  22. Default                                  : Yes
  23. Forced                                   : No

  24. Audio #1
  25. ID                                       : 2
  26. Format                                   : MLP FBA 16-ch
  27. Format/Info                              : Meridian Lossless Packing FBA with 16-channel presentation
  28. Commercial name                          : Dolby TrueHD with Dolby Atmos
  29. Codec ID                                 : A_TRUEHD
  30. Duration                                 : 1 h 41 min
  31. Bit rate mode                            : Variable
  32. Bit rate                                 : 4 598 kb/s
  33. Maximum bit rate                         : 5 742 kb/s
  34. Channel(s)                               : 8 channels
  35. Channel layout                           : L R C LFE Ls Rs Lb Rb
  36. Sampling rate                            : 48.0 kHz
  37. Frame rate                               : 1 200.000 FPS (40 SPF)
  38. Compression mode                         : Lossless
  39. Stream size                              : 3.25 GiB (19%)
  40. Title                                    : Wreck-It.Ralph.2012.2160p.BluRay.x265.10bit.SDR.TrueHD.7.1.Atmos-SWTYBLZ
  41. Language                                 : English
  42. Default                                  : Yes
  43. Forced                                   : No
  44. Number of dynamic objects                : 13
  45. Bed channel count                        : 1 channel
  46. Bed channel configuration                : LFE

  47. Audio #2
  48. ID                                       : 3
  49. Format                                   : AC-3
  50. Format/Info                              : Audio Coding 3
  51. Commercial name                          : Dolby Digital
  52. Codec ID                                 : A_AC3
  53. Duration                                 : 1 h 41 min
  54. Bit rate mode                            : Constant
  55. Bit rate                                 : 640 kb/s
  56. Channel(s)                               : 6 channels
  57. Channel layout                           : L R C LFE Ls Rs
  58. Sampling rate                            : 48.0 kHz
  59. Frame rate                               : 31.250 FPS (1536 SPF)
  60. Bit depth                                : 16 bits
  61. Compression mode                         : Lossy
  62. Stream size                              : 463 MiB (3%)
  63. Title                                    : Wreck-It.Ralph.2012.2160p.BluRay.x265.10bit.SDR.TrueHD.7.1.Atmos-SWTYBLZ
  64. Language                                 : English
  65. Service kind                             : Complete Main
  66. Default                                  : No
  67. Forced                                   : No

  68. Text #1
  69. ID                                       : 4
  70. Format                                   : UTF-8
  71. Codec ID                                 : S_TEXT/UTF8
  72. Codec ID/Info                            : UTF-8 Plain Text
  73. Duration                                 : 1 h 40 min
  74. Bit rate                                 : 68 b/s
  75. Count of elements                        : 1646
  76. Stream size                              : 50.3 KiB (0%)
  77. Title                                    : English-SRT
  78. Language                                 : English
  79. Default                                  : Yes
  80. Forced                                   : No

  81. Text #2
  82. ID                                       : 5
  83. Format                                   : UTF-8
  84. Codec ID                                 : S_TEXT/UTF8
  85. Codec ID/Info                            : UTF-8 Plain Text
  86. Duration                                 : 1 h 32 min
  87. Bit rate                                 : 67 b/s
  88. Count of elements                        : 1494
  89. Stream size                              : 45.6 KiB (0%)
  90. Title                                    : English-SDH-SRT
  91. Language                                 : English
  92. Default                                  : No
  93. Forced                                   : No

  94. Text #3
  95. ID                                       : 6
  96. Format                                   : PGS
  97. Muxing mode                              : zlib
  98. Codec ID                                 : S_HDMV/PGS
  99. Codec ID/Info                            : Picture based subtitle format used on BDs/HD-DVDs
  100. Duration                                 : 1 h 40 min
  101. Bit rate                                 : 47.5 kb/s
  102. Count of elements                        : 3748
  103. Stream size                              : 34.0 MiB (0%)
  104. Title                                    : English-PGS
  105. Language                                 : English
  106. Default                                  : No
  107. Forced                                   : No

  108. Text #4
  109. ID                                       : 7
  110. Format                                   : PGS
  111. Muxing mode                              : zlib
  112. Codec ID                                 : S_HDMV/PGS
  113. Codec ID/Info                            : Picture based subtitle format used on BDs/HD-DVDs
  114. Duration                                 : 1 h 32 min
  115. Bit rate                                 : 41.8 kb/s
  116. Count of elements                        : 2989
  117. Stream size                              : 27.6 MiB (0%)
  118. Title                                    : English-SDH-PGS
  119. Language                                 : English
  120. Default                                  : No
  121. Forced                                   : No

  122. Text #5
  123. ID                                       : 8
  124. Format                                   : PGS
  125. Muxing mode                              : zlib
  126. Codec ID                                 : S_HDMV/PGS
  127. Codec ID/Info                            : Picture based subtitle format used on BDs/HD-DVDs
  128. Duration                                 : 1 h 34 min
  129. Bit rate                                 : 42.9 kb/s
  130. Count of elements                        : 3107
  131. Stream size                              : 28.9 MiB (0%)
  132. Title                                    : French-PGS
  133. Language                                 : French
  134. Default                                  : No
  135. Forced                                   : No

  136. Text #6
  137. ID                                       : 9
  138. Format                                   : PGS
  139. Muxing mode                              : zlib
  140. Codec ID                                 : S_HDMV/PGS
  141. Codec ID/Info                            : Picture based subtitle format used on BDs/HD-DVDs
  142. Duration                                 : 1 h 34 min
  143. Bit rate                                 : 39.2 kb/s
  144. Count of elements                        : 2657
  145. Stream size                              : 26.4 MiB (0%)
  146. Title                                    : Spanish-PGS
  147. Language                                 : Spanish
  148. Default                                  : No
  149. Forced                                   : No

  150. Text #7
  151. ID                                       : 10
  152. Format                                   : PGS
  153. Muxing mode                              : zlib
  154. Codec ID                                 : S_HDMV/PGS
  155. Codec ID/Info                            : Picture based subtitle format used on BDs/HD-DVDs
  156. Duration                                 : 1 h 32 min
  157. Bit rate                                 : 33.3 kb/s
  158. Count of elements                        : 2757
  159. Stream size                              : 22.0 MiB (0%)
  160. Title                                    : Japanese-PGS
  161. Language                                 : Japanese
  162. Default                                  : No
  163. Forced                                   : No

  164. Text #8
  165. ID                                       : 11
  166. Format                                   : PGS
  167. Muxing mode                              : zlib
  168. Codec ID                                 : S_HDMV/PGS
  169. Codec ID/Info                            : Picture based subtitle format used on BDs/HD-DVDs
  170. Duration                                 : 1 h 34 min
  171. Bit rate                                 : 22.0 kb/s
  172. Count of elements                        : 2716
  173. Stream size                              : 14.8 MiB (0%)
  174. Title                                    : Korean-PGS
  175. Language                                 : Korean
  176. Default                                  : No
  177. Forced                                   : No

  178. Text #9
  179. ID                                       : 12
  180. Format                                   : PGS
  181. Muxing mode                              : zlib
  182. Codec ID                                 : S_HDMV/PGS
  183. Codec ID/Info                            : Picture based subtitle format used on BDs/HD-DVDs
  184. Duration                                 : 1 h 32 min
  185. Bit rate                                 : 28.7 kb/s
  186. Count of elements                        : 3212
  187. Stream size                              : 19.0 MiB (0%)
  188. Title                                    : Chinese-PGS
  189. Language                                 : Chinese
  190. Default                                  : No
  191. Forced                                   : No

  192. Text #10
  193. ID                                       : 13
  194. Format                                   : PGS
  195. Muxing mode                              : zlib
  196. Codec ID                                 : S_HDMV/PGS
  197. Codec ID/Info                            : Picture based subtitle format used on BDs/HD-DVDs
  198. Duration                                 : 1 h 32 min
  199. Bit rate                                 : 33.1 kb/s
  200. Count of elements                        : 3799
  201. Stream size                              : 21.9 MiB (0%)
  202. Title                                    : Chinese-PGS
  203. Language                                 : Chinese
  204. Default                                  : No
  205. Forced                                   : No

  206. Text #11
  207. ID                                       : 14
  208. Format                                   : PGS
  209. Muxing mode                              : zlib
  210. Codec ID                                 : S_HDMV/PGS
  211. Codec ID/Info                            : Picture based subtitle format used on BDs/HD-DVDs
  212. Duration                                 : 1 h 34 min
  213. Bit rate                                 : 1 021 b/s
  214. Count of elements                        : 120
  215. Stream size                              : 705 KiB (0%)
  216. Title                                    : French-PGS
  217. Language                                 : French
  218. Default                                  : No
  219. Forced                                   : No

  220. Text #12
  221. ID                                       : 15
  222. Format                                   : PGS
  223. Muxing mode                              : zlib
  224. Codec ID                                 : S_HDMV/PGS
  225. Codec ID/Info                            : Picture based subtitle format used on BDs/HD-DVDs
  226. Duration                                 : 1 h 34 min
  227. Bit rate                                 : 765 b/s
  228. Count of elements                        : 100
  229. Stream size                              : 528 KiB (0%)
  230. Title                                    : Spanish-PGS
  231. Language                                 : Spanish
  232. Default                                  : No
  233. Forced                                   : No

  234. Text #13
  235. ID                                       : 16
  236. Format                                   : PGS
  237. Muxing mode                              : zlib
  238. Codec ID                                 : S_HDMV/PGS
  239. Codec ID/Info                            : Picture based subtitle format used on BDs/HD-DVDs
  240. Duration                                 : 1 h 40 min
  241. Bit rate                                 : 137 b/s
  242. Count of elements                        : 54
  243. Stream size                              : 101 KiB (0%)
  244. Title                                    : Japanese-PGS
  245. Language                                 : Japanese
  246. Default                                  : No
  247. Forced                                   : No

  248. Text #14
  249. ID                                       : 17
  250. Format                                   : PGS
  251. Muxing mode                              : zlib
  252. Codec ID                                 : S_HDMV/PGS
  253. Codec ID/Info                            : Picture based subtitle format used on BDs/HD-DVDs
  254. Duration                                 : 1 h 34 min
  255. Bit rate                                 : 728 b/s
  256. Count of elements                        : 150
  257. Stream size                              : 503 KiB (0%)
  258. Title                                    : Korean-PGS
  259. Language                                 : Korean
  260. Default                                  : No
  261. Forced                                   : No

  262. Text #15
  263. ID                                       : 18
  264. Format                                   : PGS
  265. Muxing mode                              : zlib
  266. Codec ID                                 : S_HDMV/PGS
  267. Codec ID/Info                            : Picture based subtitle format used on BDs/HD-DVDs
  268. Duration                                 : 1 h 32 min
  269. Bit rate                                 : 1 080 b/s
  270. Count of elements                        : 145
  271. Stream size                              : 732 KiB (0%)
  272. Title                                    : Chinese-PGS
  273. Language                                 : Chinese
  274. Default                                  : No
  275. Forced                                   : No

  276. Menu
  277. 00:00:00.000                             : :Chapter 1
  278. 00:07:12.974                             : :Chapter 2
  279. 00:16:35.744                             : :Chapter 3
  280. 00:27:08.334                             : :Chapter 4
  281. 00:37:26.786                             : :Chapter 5
  282. 00:44:47.517                             : :Chapter 6
  283. 00:48:45.964                             : :Chapter 7
  284. 00:51:36.843                             : :Chapter 8
  285. 00:58:56.866                             : :Chapter 9
  286. 01:09:08.727                             : :Chapter 10
  287. 01:13:40.457                             : :Chapter 11
  288. 01:15:57.635                             : :Chapter 12
  289. 01:18:53.811                             : :Chapter 13
  290. 01:21:54.575                             : :Chapter 14
  291. 01:27:26.198                             : :Chapter 15
  292. 01:33:11.376                             : :Chapter 16
复制代码

复制代码

无敌破坏王/破坏王拉尔夫 Wreck-It.Ralph.2012.2160p.BluRay.x265.10bit.SDR.TrueHD.7.1.Atmos-SWTYBLZ 17.45GB-2.png 无敌破坏王/破坏王拉尔夫 Wreck-It.Ralph.2012.2160p.BluRay.x265.10bit.SDR.TrueHD.7.1.Atmos-SWTYBLZ 17.45GB-3.png 无敌破坏王/破坏王拉尔夫 Wreck-It.Ralph.2012.2160p.BluRay.x265.10bit.SDR.TrueHD.7.1.Atmos-SWTYBLZ 17.45GB-4.png 无敌破坏王/破坏王拉尔夫 Wreck-It.Ralph.2012.2160p.BluRay.x265.10bit.SDR.TrueHD.7.1.Atmos-SWTYBLZ 17.45GB-5.png 无敌破坏王/破坏王拉尔夫 Wreck-It.Ralph.2012.2160p.BluRay.x265.10bit.SDR.TrueHD.7.1.Atmos-SWTYBLZ 17.45GB-6.png 无敌破坏王/破坏王拉尔夫 Wreck-It.Ralph.2012.2160p.BluRay.x265.10bit.SDR.TrueHD.7.1.Atmos-SWTYBLZ 17.45GB-7.png





本帖隐藏的下载地址需要VIP会员才可阅读,您需要升级才可阅读,点击这里升级VIP

回复

使用道具 举报

级别:专业龙套 Lv.4

UID
9231
注册时间
2018-10-31
最后登录
2019-1-22
听众
0
收听
0
主题
0
蓝光币
666 枚
贡献
0 点
QQ
发表于 2018-11-25 20:14:31 | 显示全部楼层
我看不错噢 谢谢楼主!
回复

使用道具 举报

懒得打字嘛,点击右侧快捷回复 【右侧内容,后台自定义】
您需要登录后才可以回帖 登录 | 立即注册

本版积分规则

QQ|Archiver|手机版|小黑屋|中国高清网 |网站地图

GMT+8, 2019-1-22 07:59 , Processed in 0.207479 second(s), 41 queries .

Powered by HDchina X3.4

Copyright 2017-2018©HDchina.All right reserved

返回顶部 联系我们