你所知道的4K资源这里全部都有 4K电影 | 4K视频 | 4K壁纸 | 4K MV 怎么播放4K视频 | 4K电视演示片

教你玩转4K私人与家庭影院存储 NAS组装 | 黑群辉 家庭/影院Nas论坛

4K家庭影院信号源与视频设备知识 4K蓝光高清播放机 - 那个品牌好? 4K投影机论坛 | 4K电视机论坛

手把手教你搭建属于自己的家庭影院 4K家庭影院案例 | 家庭影院音频 4K家庭影院论坛

查看: 88|回复: 2

[REMUX.HEVC] 怪奇物语 第一季 Stranger.Things.S02.2160p.BluRay.REMUX.HEVC.DTS-HD.MA.5.1-FGT 156.29GB

[复制链接]

 成长值: 120

级别:资源管理组

UID
1
注册时间
2017-10-20
最后登录
2019-1-21
听众
0
收听
0
主题
73918
蓝光币
116406 枚
贡献
143727 点
发表于 2018-11-9 09:39:30 | 显示全部楼层 |阅读模式
怪奇物语 第一季 Stranger.Things.S02.2160p.BluRay.REMUX.HEVC.DTS-HD.MA.5.1-FGT 156.29GB-1.jpg
◎译  名 怪奇物语 第一季 / Montauk
◎片  名 怪奇物语 第一季 Stranger Things Season 1
◎年  代 2016
◎国  家 美国
◎类  别 剧情 / 科幻 / 悬疑 / 惊悚
◎语  言 英语
◎上映日期 无尚映时候
◎IMDb评分  8.9/10 from 527,876 users
◎IMDb链接  http://www.imdb.com/title/tt4574334/
◎豆瓣评分 8.8/10 from 84282 users
◎豆瓣链接 https://movie.douban.com/subject/26359270/
◎片  长 50分钟
◎导  演 肖恩·利维 / 马特·达菲 / 罗斯·达菲
◎主  演 薇诺娜·瑞德
      大卫·哈伯
      菲恩·伍法德
      米莉·波比·布朗
      伽塔·马塔拉佐
      凯莱布·麦克劳克林
      娜塔莉·戴尔
      查理·希顿
      卡拉·布欧诺
      马修·莫迪恩
      乔·基瑞
      罗布·摩根
      约翰·雷诺兹
      乔·克里斯特
      诺亚·施纳普
      马克·斯达格
      兰德尔·P·海文斯
      托比亚斯·耶利内克
      苏珊·沙尔霍布·拉金
      凯萨琳·戴尔
      安妮斯顿·普莱斯
      婷斯莉·普莱斯
      佩顿·威奇
      罗斯·帕特里奇
      艾米·穆林斯
      克里斯·沙利文
      朗·罗格
      休·B·赫鲁伯
      罗伯特·沃克·布兰乔德
      香农·珀瑟
      斯特凡妮·巴特勒
      尤赖亚·谢尔顿

◎简  介 

  《怪奇物语 Stranger Things》(原名《Montauk》)。本剧布景设备在上世纪八十年月的印第安纳州,一个小男孩奥秘的消失了;他的朋友、家人以及当地的警方起头极力找寻答案,但却被卷入了一个充溢奥秘实验和可骇超自然气力的奥秘事务中,一个陌生的小女孩看似也与这起事务有莫大的关系。本剧由年轻的范例片电影建造人Matt Duffer和Russ Duffer编剧并执导,由Shawn Levy担任履行建造人。
  Winona Ryder飾演Joyce,他的兒子就是那失蹤的小孩;David Harbour饰演帮助其寻觅观察的警官。Cara Buono将饰演Karen,Mike和Nancy的母亲,这两个孩子也加入寻觅失落男孩的队伍中。Ross Partridge将饰演Lonnie,虽然与Joyce(Ryder饰)仳离但仍对此抱持不满的Joyce的前夫。Matthew Modine飾演Martin Brenner博士,聰明但布景奥秘,或許跟兒童失蹤有關。
  在经过全球挑选年轻小演员以后,Netflix在上年肯定了行将开拍的超自然剧集的主演,被选中的小演员有Finn Wolfhard、Millie Brown、Gaten Matarazzo、Caleb McLaughlin、Noah Schnapp、Natalia Dyer和Charlie Heaton。
  Finn Wolfhard饰演Mike,一个备受凌辱的12岁男孩,为了拯救他最好的朋友,他成为了一个让人最意想不到的豪杰。他之前参演过《地球百子 The 100》、《Aftermath》、《The Resurrection》。
  Millie Brown,之后果参演《借居者 Intruders》被人们所熟知;她将饰演Mike在森林里碰见,一个具有奇异气力的奥秘脚色。她还参演过《童话镇 Once Upon A Time》和《水兵犯罪观察处 NCIS》。
  Gaten Matarazzo饰演12岁的Dustin,一个很是有节奏感的男生,并在整部剧中担任诙谐担任,用自己的诙谐感导解为难的氛围和情况。
  Caleb McLaughlin饰演Lucas,Mike刚愎自用的朋友,有此外男孩没有的凶悍和勇气。
  Noah Schnapp饰演Will,一个幼弱敏感的男生,他似乎不合适在80年月的「普通」界说;也就是他凭空消失了。
  Natalia Dyer饰演Nancy,Mike的姐姐。Charlie Heaton饰演Joanthan,Will的哥哥。

◎获奖情况 

  第74届金球奖 (2017)
  电视类 最好剧情类剧集(提名)
  电视类 剧情类剧集最好女配角(提名) 薇诺娜·瑞德

  第69届黄金时段艾美奖 (2017)
  剧情类 最好剧集(提名)
  剧情类 最好男配角(提名) 大卫·哈伯
  剧情类 最好女配角(提名) 米莉·波比·布朗
  剧情类 最好客串女演员(提名) 香农·珀瑟
  剧情类 最好导演(提名) 马特·达菲 /  罗斯·达菲
  剧情类 最好编剧(提名)

  第26届MTV电影奖 (2017)
  MTV电影奖 最好反派(提名)

  第19届美国打扮设想工会奖 (2017)
  年月剧集最好打扮设想(提名)

  第69届美国导演工会奖 (2017)
  最好剧情类剧集导演(提名) 马特·达菲 /  罗斯·达菲

  第23届美国演员工会奖 (2017)
  电视奖 剧情类剧集最好女演员(提名) 米莉·波比·布朗 /  薇诺娜·瑞德
  电视奖 剧情类剧集最好群戏

  第69届美国编剧工会奖 (2017)
  电视奖 剧情类剧集最好剧本(提名)
  电视奖 最好新剧剧本(提名)

  第28届美国制片野生会奖 (2017)
  最好剧情类剧集制片人奖

  第67届美国剪辑工会奖 (2017)
  一小时非贸易电视最好剪辑(提名)

  第21届美国艺术指导工会奖 (2017)
  电视奖 最好1小时历史剧/空想类单镜头剧集艺术指导(提名)

  第15届美国视觉结果协会奖 (2017)
  最好广播节目视觉结果(提名)

  第53届美国声音结果协会奖 (2017)
  1小时剧集最好音效(提名)

  第7届美国批评家挑选电视奖 (2016)
  剧情类最好剧集(提名)

  第17届美国电影学会奖 (2016)
  年度佳剧

  第3届豆瓣电影年度榜单 (2016)
  评分最高的英美剧(新剧)(提名)


  1. Video
  2. ID                                       : 1
  3. Format                                   : HEVC
  4. Format/Info                              : High Efficiency Video Coding
  5. Commercial name                          : HDR10
  6. Format profile                           : Main [url=/cdn-cgi/l/email-protection][email protected][/url]@High
  7. Codec ID                                 : V_MPEGH/ISO/HEVC
  8. Duration                                 : 1 h 0 min
  9. Bit rate                                 : 46.0 Mb/s
  10. Width                                    : 3 840 pixels
  11. Height                                   : 2 160 pixels
  12. Display aspect ratio                     : 16:9
  13. Frame rate mode                          : Constant
  14. Frame rate                               : 23.976 (24000/1001) FPS
  15. Color space                              : YUV
  16. Chroma subsampling                       : 4:2:0 (Type 2)
  17. Bit depth                                : 10 bits
  18. Bits/(Pixel*Frame)                       : 0.231
  19. Stream size                              : 19.6 GiB (90%)
  20. Title                                    : Stranger.Things.S02E09.Chapter.Nine.The.Gate.2160p.BluRay.REMUX.HEVC.DTS-HD.MA.5.1-FGT
  21. Writing library                          : ATEME Titan File 3.8.16 (4.8.16.0)
  22. Default                                  : Yes
  23. Forced                                   : No
  24. Color range                              : Limited
  25. Color primaries                          : BT.2020
  26. Transfer characteristics                 : PQ
  27. Matrix coefficients                      : BT.2020 non-constant
  28. Mastering display color primaries        : Display P3
  29. Mastering display luminance              : min: 0.0050 cd/m2, max: 1000 cd/m2

  30. Audio #1
  31. ID                                       : 2
  32. Format                                   : DTS XLL
  33. Format/Info                              : Digital Theater Systems
  34. Commercial name                          : DTS-HD Master Audio
  35. Codec ID                                 : A_DTS
  36. Duration                                 : 1 h 0 min
  37. Bit rate mode                            : Variable
  38. Bit rate                                 : 3 526 kb/s
  39. Channel(s)                               : 6 channels
  40. Channel layout                           : C L R Ls Rs LFE
  41. Sampling rate                            : 48.0 kHz
  42. Frame rate                               : 93.750 FPS (512 SPF)
  43. Bit depth                                : 24 bits
  44. Compression mode                         : Lossless
  45. Stream size                              : 1.50 GiB (7%)
  46. Title                                    : Stranger.Things.S02E09.Chapter.Nine.The.Gate.2160p.BluRay.REMUX.HEVC.DTS-HD.MA.5.1-FGT
  47. Language                                 : English
  48. Default                                  : Yes
  49. Forced                                   : No

  50. Audio #2
  51. ID                                       : 3
  52. Format                                   : AC-3
  53. Format/Info                              : Audio Coding 3
  54. Commercial name                          : Dolby Digital
  55. Codec ID                                 : A_AC3
  56. Duration                                 : 1 h 0 min
  57. Bit rate mode                            : Constant
  58. Bit rate                                 : 640 kb/s
  59. Channel(s)                               : 6 channels
  60. Channel layout                           : L R C LFE Ls Rs
  61. Sampling rate                            : 48.0 kHz
  62. Frame rate                               : 31.250 FPS (1536 SPF)
  63. Bit depth                                : 16 bits
  64. Compression mode                         : Lossy
  65. Stream size                              : 279 MiB (1%)
  66. Title                                    : Stranger.Things.S02E09.Chapter.Nine.The.Gate.2160p.BluRay.REMUX.HEVC.DTS-HD.MA.5.1-FGT
  67. Language                                 : English
  68. Service kind                             : Complete Main
  69. Default                                  : No
  70. Forced                                   : No

  71. Audio #3
  72. ID                                       : 4
  73. Format                                   : AC-3
  74. Format/Info                              : Audio Coding 3
  75. Commercial name                          : Dolby Digital
  76. Codec ID                                 : A_AC3
  77. Duration                                 : 1 h 0 min
  78. Bit rate mode                            : Constant
  79. Bit rate                                 : 640 kb/s
  80. Channel(s)                               : 6 channels
  81. Channel layout                           : L R C LFE Ls Rs
  82. Sampling rate                            : 48.0 kHz
  83. Frame rate                               : 31.250 FPS (1536 SPF)
  84. Bit depth                                : 16 bits
  85. Compression mode                         : Lossy
  86. Stream size                              : 279 MiB (1%)
  87. Title                                    : Stranger.Things.S02E09.Chapter.Nine.The.Gate.2160p.BluRay.REMUX.HEVC.DTS-HD.MA.5.1-FGT
  88. Language                                 : Spanish
  89. Service kind                             : Complete Main
  90. Default                                  : No
  91. Forced                                   : No

  92. Text #1
  93. ID                                       : 5
  94. Format                                   : PGS
  95. Muxing mode                              : zlib
  96. Codec ID                                 : S_HDMV/PGS
  97. Codec ID/Info                            : Picture based subtitle format used on BDs/HD-DVDs
  98. Duration                                 : 58 min 37 s
  99. Bit rate                                 : 32.9 kb/s
  100. Count of elements                        : 1538
  101. Stream size                              : 13.8 MiB (0%)
  102. Title                                    : English-PGS
  103. Language                                 : English
  104. Default                                  : Yes
  105. Forced                                   : No

  106. Text #2
  107. ID                                       : 6
  108. Format                                   : PGS
  109. Muxing mode                              : zlib
  110. Codec ID                                 : S_HDMV/PGS
  111. Codec ID/Info                            : Picture based subtitle format used on BDs/HD-DVDs
  112. Duration                                 : 1 h 0 min
  113. Bit rate                                 : 22.5 kb/s
  114. Count of elements                        : 1276
  115. Stream size                              : 9.72 MiB (0%)
  116. Title                                    : Spanish-PGS
  117. Language                                 : Spanish
  118. Default                                  : No
  119. Forced                                   : No

  120. Text #3
  121. ID                                       : 7
  122. Format                                   : PGS
  123. Muxing mode                              : zlib
  124. Codec ID                                 : S_HDMV/PGS
  125. Codec ID/Info                            : Picture based subtitle format used on BDs/HD-DVDs
  126. Duration                                 : 57 min 32 s
  127. Bit rate                                 : 495 b/s
  128. Count of elements                        : 24
  129. Stream size                              : 209 KiB (0%)
  130. Title                                    : Spanish-PGS
  131. Language                                 : Spanish
  132. Default                                  : No
  133. Forced                                   : No

  134. Menu
  135. 00:00:00.000                             : :Chapter 1
  136. 00:10:07.273                             : :Chapter 2
  137. 00:20:05.787                             : :Chapter 3
  138. 00:30:04.511                             : :Chapter 4
  139. 00:40:04.860                             : :Chapter 5
  140. 00:58:44.979                             : :Chapter 6
复制代码

复制代码

怪奇物语 第一季 Stranger.Things.S02.2160p.BluRay.REMUX.HEVC.DTS-HD.MA.5.1-FGT 156.29GB-2.png 怪奇物语 第一季 Stranger.Things.S02.2160p.BluRay.REMUX.HEVC.DTS-HD.MA.5.1-FGT 156.29GB-3.png 怪奇物语 第一季 Stranger.Things.S02.2160p.BluRay.REMUX.HEVC.DTS-HD.MA.5.1-FGT 156.29GB-4.png





本帖隐藏的下载地址需要VIP会员才可阅读,您需要升级才可阅读,点击这里升级VIP

回复

使用道具 举报

级别:普通观众 Lv.2

UID
10172
注册时间
2018-11-15
最后登录
2019-1-14
听众
0
收听
0
主题
0
蓝光币
67 枚
贡献
0 点
发表于 2018-11-20 15:21:08 | 显示全部楼层
喜欢这个题材,看看先,谢谢楼主
回复

使用道具 举报

级别:专业龙套 Lv.4

UID
9231
注册时间
2018-10-31
最后登录
2019-1-22
听众
0
收听
0
主题
0
蓝光币
666 枚
贡献
0 点
QQ
发表于 2018-11-25 20:04:05 | 显示全部楼层
我看不错噢 谢谢楼主!
回复

使用道具 举报

懒得打字嘛,点击右侧快捷回复 【右侧内容,后台自定义】
您需要登录后才可以回帖 登录 | 立即注册

本版积分规则

QQ|Archiver|手机版|小黑屋|中国高清网 |网站地图

GMT+8, 2019-1-22 07:47 , Processed in 0.176278 second(s), 41 queries .

Powered by HDchina X3.4

Copyright 2017-2018©HDchina.All right reserved

返回顶部 联系我们