你所知道的4K资源这里全部都有 4K电影 | 4K视频 | 4K壁纸 | 4K MV 怎么播放4K视频 | 4K电视演示片

教你玩转4K私人与家庭影院存储 NAS组装 | 黑群辉 家庭/影院Nas论坛

4K家庭影院信号源与视频设备知识 4K蓝光高清播放机 - 那个品牌好? 4K投影机论坛 | 4K电视机论坛

手把手教你搭建属于自己的家庭影院 4K家庭影院案例 | 家庭影院音频 4K家庭影院论坛

查看: 115|回复: 8

[剧情片] 守法公民/重案对决 Law.Abiding.Citizen.2009.REMASTERED.1080p.BluRay.x264.DTS-HD.MA.7.1-SWTYBLZ 14.44GB

[复制链接]

 成长值: 120

级别:资源管理组

UID
1
注册时间
2017-10-20
最后登录
2019-1-21
听众
0
收听
0
主题
73918
蓝光币
116406 枚
贡献
143727 点
发表于 2018-11-9 09:35:44 | 显示全部楼层 |阅读模式

遵法百姓/重案对决 Law.Abiding.Citizen.2009.REMASTERED.1080p.BluRay.x264.DTS-HD.MA.7.1-SWTYBLZ 14.44GB-1.jpg
◎译  名 遵法百姓 / 重案对决 / 知法玩法
◎片  名 遵法百姓 Law Abiding Citizen
◎年  代 2009
◎国  家 美国
◎类  别 剧情 / 惊悚 / 犯罪
◎语  言 英语
◎上映日期 2009-10-16
◎IMDb评分  7.4/10 from 244,597 users
◎IMDb链接  http://www.imdb.com/title/tt1197624/
◎豆瓣评分 7.9/10 from 69858 users
◎豆瓣链接 https://movie.douban.com/subject/3009161/
◎片  长 108 分钟 / 118 分钟(director's cut)
◎导  演 F·加里·格雷
◎主  演 杰米·福克斯
      杰拉德·巴特勒
      科尔姆·米尼
      布鲁斯·麦克吉尔
      莱丝莉·比伯
      维奥拉·戴维斯

◎简  介 

  克莱德·谢尔顿(格莱德·巴特勒 Gerard Butler 饰)是居住在费城某小镇的一位研发职员,他有着美丽的妻子和心爱的女儿,生活幸运完竣。但这一切都被突如其来的灾难所摧毁。某晚,两个大盗闯入他的家中,妻子和女儿都遭到摧残。但是虽然证据确实,但由于司法法式的陈腐和尼克·瑞斯(杰米·福克斯 Jamie Foxx 饰)助理履行官的出错,终极让首犯克拉伦斯·多比(克里斯蒂安·斯多特 Christian Stolte 饰)因证据不敷只获得10年徒刑。
  本以为一切归于寂静,但10年后昔时未了的风浪复兴。怀着庞大冤仇的克莱德起头筹划展开报复,先是干掉了昔时的从犯阿米,接着他很快找到了邪恶无耻的多比,并对其停止残暴的熬煎与虐杀。克莱德的冤仇获得庞大的宣泄,可是他的复仇还未就此停止。他所针对的不但是那两个大盗,而是全部腐败出错的司法系统……


  1. Video
  2. ID                                       : 1
  3. Format                                   : AVC
  4. Format/Info                              : Advanced Video Codec
  5. Format profile                           : [url=/cdn-cgi/l/email-protection][email protected][/url]
  6. Format settings                          : CABAC / 5 Ref Frames
  7. Format settings, CABAC                   : Yes
  8. Format settings, ReFrames                : 5 frames
  9. Codec ID                                 : V_MPEG4/ISO/AVC
  10. Duration                                 : 1 h 49 min
  11. Bit rate                                 : 15.0 Mb/s
  12. Width                                    : 1 920 pixels
  13. Height                                   : 800 pixels
  14. Display aspect ratio                     : 2.40:1
  15. Frame rate mode                          : Constant
  16. Frame rate                               : 23.976 (24000/1001) FPS
  17. Color space                              : YUV
  18. Chroma subsampling                       : 4:2:0
  19. Bit depth                                : 8 bits
  20. Scan type                                : Progressive
  21. Bits/(Pixel*Frame)                       : 0.408
  22. Stream size                              : 11.5 GiB (79%)
  23. Title                                    : Law.Abiding.Citizen.2009.REMASTERED.1080p.BluRay.x264.DTS-HD.MA.7.1-SWTYBLZ
  24. Writing library                          : x264 core 157 r2935 545de2f
  25. Encoding settings                        : cabac=1 / ref=5 / deblock=1:-1:-1 / analyse=0x3:0x133 / me=umh / subme=10 / psy=1 / psy_rd=1.00:0.15 / mixed_ref=1 / me_range=48 / chroma_me=1 / trellis=2 / 8x8dct=1 / cqm=0 / deadzone=21,11 / fast_pskip=1 / chroma_qp_offset=-3 / threads=25 / lookahead_threads=4 / sliced_threads=0 / nr=0 / decimate=0 / interlaced=0 / bluray_compat=0 / constrained_intra=0 / bframes=8 / b_pyramid=2 / b_adapt=2 / b_bias=0 / direct=3 / weightb=1 / open_gop=0 / weightp=2 / keyint=250 / keyint_min=23 / scenecut=40 / intra_refresh=0 / rc_lookahead=60 / rc=crf / mbtree=1 / crf=15.0 / qcomp=0.60 / qpmin=0 / qpmax=69 / qpstep=4 / ip_ratio=1.40 / aq=1:1.00
  26. Default                                  : Yes
  27. Forced                                   : No

  28. Audio
  29. ID                                       : 2
  30. Format                                   : DTS XLL
  31. Format/Info                              : Digital Theater Systems
  32. Commercial name                          : DTS-HD Master Audio
  33. Codec ID                                 : A_DTS
  34. Duration                                 : 1 h 49 min
  35. Bit rate mode                            : Variable
  36. Bit rate                                 : 3 842 kb/s
  37. Channel(s)                               : 8 channels
  38. Channel layout                           : C L R LFE Lb Rb Lss Rss
  39. Sampling rate                            : 48.0 kHz
  40. Frame rate                               : 93.750 FPS (512 SPF)
  41. Bit depth                                : 24 bits
  42. Compression mode                         : Lossless
  43. Stream size                              : 2.93 GiB (20%)
  44. Title                                    : Law.Abiding.Citizen.2009.REMASTERED.1080p.BluRay.x264.DTS-HD.MA.7.1-SWTYBLZ
  45. Language                                 : English
  46. Default                                  : No
  47. Forced                                   : No

  48. Text #1
  49. ID                                       : 3
  50. Format                                   : UTF-8
  51. Codec ID                                 : S_TEXT/UTF8
  52. Codec ID/Info                            : UTF-8 Plain Text
  53. Duration                                 : 1 h 37 min
  54. Bit rate                                 : 65 b/s
  55. Count of elements                        : 1287
  56. Stream size                              : 46.9 KiB (0%)
  57. Title                                    : English-SRT
  58. Language                                 : English
  59. Default                                  : Yes
  60. Forced                                   : No

  61. Text #2
  62. ID                                       : 4
  63. Format                                   : UTF-8
  64. Codec ID                                 : S_TEXT/UTF8
  65. Codec ID/Info                            : UTF-8 Plain Text
  66. Duration                                 : 1 h 44 min
  67. Bit rate                                 : 63 b/s
  68. Count of elements                        : 1294
  69. Stream size                              : 48.2 KiB (0%)
  70. Title                                    : English-SDH-SRT
  71. Language                                 : English
  72. Default                                  : No
  73. Forced                                   : No

  74. Text #3
  75. ID                                       : 5
  76. Format                                   : PGS
  77. Muxing mode                              : zlib
  78. Codec ID                                 : S_HDMV/PGS
  79. Codec ID/Info                            : Picture based subtitle format used on BDs/HD-DVDs
  80. Duration                                 : 1 h 37 min
  81. Bit rate                                 : 39.8 kb/s
  82. Count of elements                        : 2574
  83. Stream size                              : 27.9 MiB (0%)
  84. Title                                    : English-PGS
  85. Language                                 : English
  86. Default                                  : No
  87. Forced                                   : No

  88. Text #4
  89. ID                                       : 6
  90. Format                                   : PGS
  91. Muxing mode                              : zlib
  92. Codec ID                                 : S_HDMV/PGS
  93. Codec ID/Info                            : Picture based subtitle format used on BDs/HD-DVDs
  94. Duration                                 : 1 h 45 min
  95. Bit rate                                 : 40.2 kb/s
  96. Count of elements                        : 2826
  97. Stream size                              : 30.3 MiB (0%)
  98. Title                                    : English-SDH-PGS
  99. Language                                 : English
  100. Default                                  : No
  101. Forced                                   : No

  102. Text #5
  103. ID                                       : 7
  104. Format                                   : PGS
  105. Muxing mode                              : zlib
  106. Codec ID                                 : S_HDMV/PGS
  107. Codec ID/Info                            : Picture based subtitle format used on BDs/HD-DVDs
  108. Duration                                 : 1 h 47 min
  109. Bit rate                                 : 35.2 kb/s
  110. Count of elements                        : 2502
  111. Stream size                              : 27.1 MiB (0%)
  112. Title                                    : Spanish-PGS
  113. Language                                 : Spanish
  114. Default                                  : No
  115. Forced                                   : No

  116. Menu
  117. 00:00:00.000                             : :Chapter 1
  118. 00:05:58.149                             : :Chapter 2
  119. 00:12:14.066                             : :Chapter 3
  120. 00:18:41.870                             : :Chapter 4
  121. 00:26:56.448                             : :Chapter 5
  122. 00:32:38.081                             : :Chapter 6
  123. 00:40:16.038                             : :Chapter 7
  124. 00:44:11.649                             : :Chapter 8
  125. 00:47:28.262                             : :Chapter 9
  126. 00:58:09.319                             : :Chapter 10
  127. 01:06:15.554                             : :Chapter 11
  128. 01:11:13.185                             : :Chapter 12
  129. 01:16:45.767                             : :Chapter 13
  130. 01:24:12.797                             : :Chapter 14
  131. 01:35:39.817                             : :Chapter 15
  132. 01:40:39.700                             : :Chapter 16
复制代码

复制代码

遵法百姓/重案对决 Law.Abiding.Citizen.2009.REMASTERED.1080p.BluRay.x264.DTS-HD.MA.7.1-SWTYBLZ 14.44GB-2.png 遵法百姓/重案对决 Law.Abiding.Citizen.2009.REMASTERED.1080p.BluRay.x264.DTS-HD.MA.7.1-SWTYBLZ 14.44GB-3.png 遵法百姓/重案对决 Law.Abiding.Citizen.2009.REMASTERED.1080p.BluRay.x264.DTS-HD.MA.7.1-SWTYBLZ 14.44GB-4.png





回复

使用道具 举报

级别:专业龙套 Lv.4

UID
8875
注册时间
2018-10-24
最后登录
2019-1-21
听众
3
收听
0
主题
0
蓝光币
472 枚
贡献
0 点
QQ
发表于 2018-11-9 10:37:58 | 显示全部楼层
每天都来论坛看看有什么电影!
回复

使用道具 举报

级别:初级观众 Lv.1

UID
5141
注册时间
2018-7-11
最后登录
2018-11-9
听众
1
收听
0
主题
0
蓝光币
0 枚
贡献
0 点
发表于 2018-11-9 16:09:32 | 显示全部楼层
下载看看,看介绍这片子不错
回复

使用道具 举报

级别:专业龙套 Lv.4

UID
9231
注册时间
2018-10-31
最后登录
2019-1-22
听众
0
收听
0
主题
0
蓝光币
666 枚
贡献
0 点
QQ
发表于 2018-11-9 22:11:18 | 显示全部楼层


感谢楼主的无私分享!
回复

使用道具 举报

级别:初级观众 Lv.1

UID
9731
注册时间
2018-11-9
最后登录
2018-11-9
听众
0
收听
0
主题
0
蓝光币
1 枚
贡献
0 点
发表于 2018-11-9 22:15:11 | 显示全部楼层
了,吗。,、吗,。、吗、。,m/m、。,
回复

使用道具 举报

级别:初级观众 Lv.1

UID
9731
注册时间
2018-11-9
最后登录
2018-11-9
听众
0
收听
0
主题
0
蓝光币
1 枚
贡献
0 点
发表于 2018-11-9 22:17:53 | 显示全部楼层
美女吧帮忙,吧吗, 米黑科技刚看见看见
回复

使用道具 举报

 成长值: 120

级别:资源管理组

UID
1
注册时间
2017-10-20
最后登录
2019-1-21
听众
0
收听
0
主题
73918
蓝光币
116406 枚
贡献
143727 点
 楼主| 发表于 2018-11-9 22:36:59 | 显示全部楼层
491105092 发表于 2018-11-9 22:17
美女吧帮忙,吧吗, 米黑科技刚看见看见

请不要灌水,感谢你对本站的支持!
回复

使用道具 举报

级别:初级观众 Lv.1

UID
9808
注册时间
2018-11-10
最后登录
2018-11-10
听众
0
收听
0
主题
0
蓝光币
2 枚
贡献
0 点
发表于 2018-11-10 20:47:18 | 显示全部楼层

下载看看,看介绍这片子不错
回复

使用道具 举报

级别:初级观众 Lv.1

UID
9808
注册时间
2018-11-10
最后登录
2018-11-10
听众
0
收听
0
主题
0
蓝光币
2 枚
贡献
0 点
发表于 2018-11-10 20:48:13 | 显示全部楼层
愤愤蜀黍的杯具人生,虎头蛇尾,可惜了
回复

使用道具 举报

懒得打字嘛,点击右侧快捷回复 【右侧内容,后台自定义】
您需要登录后才可以回帖 登录 | 立即注册

本版积分规则

QQ|Archiver|手机版|小黑屋|中国高清网 |网站地图

GMT+8, 2019-1-22 07:41 , Processed in 0.153264 second(s), 41 queries .

Powered by HDchina X3.4

Copyright 2017-2018©HDchina.All right reserved

返回顶部 联系我们