你所知道的4K资源这里全部都有 4K电影 | 4K视频 | 4K壁纸 | 4K MV 怎么播放4K视频 | 4K电视演示片

教你玩转4K私人与家庭影院存储 NAS组装 | 黑群辉 家庭/影院Nas论坛

4K家庭影院信号源与视频设备知识 4K蓝光高清播放机 - 那个品牌好? 4K投影机论坛 | 4K电视机论坛

手把手教你搭建属于自己的家庭影院 4K家庭影院案例 | 家庭影院音频 4K家庭影院论坛

查看: 147|回复: 4

[剧情片] 末路鸳鸯/新娘向后跑 Heavens.Burning.1997.1080p.BluRay.x264.DTS-FGT 9.01GB

[复制链接]

 成长值: 1040

级别:资源管理组

注册时间
2017-10-20
最后登录
2019-4-23
听众
0
收听
0
主题
76979
蓝光币
8529 枚
贡献
1287 点
发表于 2018-11-9 09:35:00 | 显示全部楼层 |阅读模式

末路鸳鸯/新娘向后跑 Heavens.Burning.1997.1080p.BluRay.x264.DTS-FGT 9.01GB-1.jpg
◎译  名 末路鸳鸯 / 新娘向后跑
◎片  名 末路鸳鸯 Heaven's Burning
◎年  代 1997
◎国  家 澳大利亚
◎类  别 剧情 / 行动 / 恋爱 / 惊悚 / 犯罪
◎语  言 日语 / 英语
◎上映日期 1997-09-04
◎IMDb评分  5.8/10 from 1,692 users
◎IMDb链接  http://www.imdb.com/title/tt0119272/
◎豆瓣评分 7.0/10 from 69 users
◎豆瓣链接 https://movie.douban.com/subject/1302723/
◎片  长 96 分钟 / Argentina: 98 分钟 / Japan: 100 分钟
◎导  演 Craig Lahiff
◎主  演 Russell Crowe
      Youki Kudoh
      Ray Barrett
      Kenji Isomura
      Robert Mammone

◎简  介 

  日本新娘Midori为了回避新婚之夜、然后与情人私奔,自导自演了一出绑架案,可是没想到,计划却有了出乎料想的改变。首先,她的情人没有在约定的时候出现,不幸的Midori只好单独一人在澳洲悉尼游荡。当她进入当地银行兑现零钱时,巧遇一宗由阿富汗难民所主导的抢劫案。在一阵紊乱中,抢案失利,劫匪挟持Midori为人质。当暴徒正筹算杀她灭口时,他们所招聘的司机Colin竟出头救了Midori。因而,两人携手展开一场横越澳洲的亡命之旅。
  可是,日本与澳洲的警方及Midori愤慨疯狂的丈夫都在后紧追不舍。这一对亡命鸳鸯能否能逃出这条不归路?


  1. Video
  2. ID                                       : 1
  3. Format                                   : AVC
  4. Format/Info                              : Advanced Video Codec
  5. Format profile                           : [url=/cdn-cgi/l/email-protection][email protected][/url]
  6. Format settings                          : CABAC / 4 Ref Frames
  7. Format settings, CABAC                   : Yes
  8. Format settings, ReFrames                : 4 frames
  9. Codec ID                                 : V_MPEG4/ISO/AVC
  10. Duration                                 : 1 h 39 min
  11. Bit rate                                 : 11.5 Mb/s
  12. Width                                    : 1 920 pixels
  13. Height                                   : 804 pixels
  14. Display aspect ratio                     : 2.40:1
  15. Frame rate mode                          : Constant
  16. Frame rate                               : 24.000 FPS
  17. Color space                              : YUV
  18. Chroma subsampling                       : 4:2:0
  19. Bit depth                                : 8 bits
  20. Scan type                                : Progressive
  21. Bits/(Pixel*Frame)                       : 0.310
  22. Stream size                              : 7.96 GiB (88%)
  23. Title                                    : Heavens.Burning.1997.1080p.BluRay.x264.DTS-FGT
  24. Writing library                          : x264 core 148 r2795M aaa9aa8
  25. Encoding settings                        : cabac=1 / ref=4 / deblock=1:-2:-2 / analyse=0x3:0x113 / me=umh / subme=9 / psy=1 / psy_rd=1.00:0.15 / mixed_ref=1 / me_range=16 / chroma_me=1 / trellis=2 / 8x8dct=1 / cqm=0 / deadzone=21,11 / fast_pskip=1 / chroma_qp_offset=-3 / threads=24 / lookahead_threads=3 / sliced_threads=0 / nr=0 / decimate=1 / interlaced=0 / bluray_compat=0 / constrained_intra=0 / bframes=3 / b_pyramid=2 / b_adapt=1 / b_bias=0 / direct=3 / weightb=1 / open_gop=0 / weightp=2 / keyint=250 / keyint_min=25 / scenecut=40 / intra_refresh=0 / rc_lookahead=50 / rc=2pass / mbtree=1 / bitrate=11500 / ratetol=1.0 / qcomp=0.60 / qpmin=0 / qpmax=69 / qpstep=4 / cplxblur=20.0 / qblur=0.5 / vbv_maxrate=31250 / vbv_bufsize=31250 / nal_hrd=none / filler=0 / ip_ratio=1.40 / aq=1:1.00
  26. Language                                 : English
  27. Default                                  : Yes
  28. Forced                                   : No

  29. Audio
  30. ID                                       : 2
  31. Format                                   : DTS
  32. Format/Info                              : Digital Theater Systems
  33. Codec ID                                 : A_DTS
  34. Duration                                 : 1 h 39 min
  35. Bit rate mode                            : Constant
  36. Bit rate                                 : 1 509 kb/s
  37. Channel(s)                               : 6 channels
  38. Channel layout                           : C L R Ls Rs LFE
  39. Sampling rate                            : 48.0 kHz
  40. Frame rate                               : 93.750 FPS (512 SPF)
  41. Bit depth                                : 24 bits
  42. Compression mode                         : Lossy
  43. Stream size                              : 1.05 GiB (12%)
  44. Title                                    : Heavens.Burning.1997.1080p.BluRay.x264.DTS-FGT
  45. Language                                 : English
  46. Default                                  : Yes
  47. Forced                                   : No

  48. Text
  49. ID                                       : 3
  50. Format                                   : UTF-8
  51. Codec ID                                 : S_TEXT/UTF8
  52. Codec ID/Info                            : UTF-8 Plain Text
  53. Duration                                 : 1 h 26 min
  54. Bit rate                                 : 4 b/s
  55. Count of elements                        : 95
  56. Stream size                              : 2.86 KiB (0%)
  57. Language                                 : English
  58. Default                                  : Yes
  59. Forced                                   : No

  60. Menu
  61. 00:00:00.000                             : en:Chapter 01
  62. 00:00:21.791                             : en:Chapter 02
  63. 00:07:19.083                             : en:Chapter 03
  64. 00:15:46.666                             : en:Chapter 04
  65. 00:24:20.500                             : en:Chapter 05
  66. 00:35:54.500                             : en:Chapter 06
  67. 00:42:51.291                             : en:Chapter 07
  68. 00:51:41.333                             : en:Chapter 08
  69. 01:00:31.250                             : en:Chapter 09
  70. 01:11:56.333                             : en:Chapter 10
  71. 01:21:24.500                             : en:Chapter 11
  72. 01:29:53.500                             : en:Chapter 12
  73. 01:36:38.708                             : en:Chapter 13
复制代码

复制代码

末路鸳鸯/新娘向后跑 Heavens.Burning.1997.1080p.BluRay.x264.DTS-FGT 9.01GB-2.png 末路鸳鸯/新娘向后跑 Heavens.Burning.1997.1080p.BluRay.x264.DTS-FGT 9.01GB-3.png 末路鸳鸯/新娘向后跑 Heavens.Burning.1997.1080p.BluRay.x264.DTS-FGT 9.01GB-4.png





回复

使用道具 举报

级别:专业龙套 Lv.4

注册时间
2018-10-24
最后登录
2019-4-23
听众
5
收听
0
主题
0
蓝光币
635 枚
贡献
0 点
QQ
发表于 2018-11-9 11:02:01 | 显示全部楼层
每天都来论坛看看有什么电影!
回复

使用道具 举报

级别:普通观众 Lv.2

注册时间
2018-9-18
最后登录
2018-12-27
听众
2
收听
0
主题
0
蓝光币
14 枚
贡献
0 点
发表于 2018-11-9 11:40:35 | 显示全部楼层
发表回复 回帖后跳转到最后一页
回复

使用道具 举报

 成长值: 2590

级别:尊贵的会员

注册时间
2018-11-6
最后登录
2019-2-17
听众
2
收听
0
主题
0
蓝光币
51 枚
贡献
0 点
发表于 2018-11-9 13:10:28 | 显示全部楼层

碟中谍, 全面, 瓦解, 不可能, 可能
回复

使用道具 举报

级别:群众演员 Lv.3

注册时间
2018-9-6
最后登录
2019-4-18
听众
5
收听
0
主题
0
蓝光币
57 枚
贡献
0 点
发表于 2018-11-9 13:13:25 | 显示全部楼层
谢谢楼主分享
回复

使用道具 举报

懒得打字嘛,点击右侧快捷回复 【右侧内容,后台自定义】
您需要登录后才可以回帖 登录 | 立即注册

本版积分规则

QQ|Archiver|手机版|小黑屋|中国高清网  |网站地图

GMT+8, 2019-4-23 18:26 , Processed in 0.133965 second(s), 42 queries .

Powered by HDchina X3.4

Copyright 2017-2018©HDchina.All right reserved

返回顶部 联系我们