你所知道的4K资源这里全部都有 4K电影 | 4K视频 | 4K壁纸 | 4K MV 怎么播放4K视频 | 4K电视演示片

教你玩转4K私人与家庭影院存储 NAS组装 | 黑群辉 家庭/影院Nas论坛

4K家庭影院信号源与视频设备知识 4K蓝光高清播放机 - 那个品牌好? 4K投影机论坛 | 4K电视机论坛

手把手教你搭建属于自己的家庭影院 4K家庭影院案例 | 家庭影院音频 4K家庭影院论坛

查看: 124|回复: 2

[剧情片] 空军一号 Air.Force.One.1997.REMASTERED.1080p.BluRay.x264.DTS-HD.MA.7.1-SWTYBLZ 15.78GB

[复制链接]

 成长值: 120

级别:资源管理组

UID
1
注册时间
2017-10-20
最后登录
2019-1-21
听众
0
收听
0
主题
73918
蓝光币
116406 枚
贡献
143727 点
发表于 2018-11-9 09:34:37 | 显示全部楼层 |阅读模式

空军一号 Air.Force.One.1997.REMASTERED.1080p.BluRay.x264.DTS-HD.MA.7.1-SWTYBLZ 15.78GB-1.jpg
◎译  名 空军一号 / AFO
◎片  名 空军一号 Air Force One
◎年  代 1997
◎国  家 美国 / 德国
◎类  别 剧情 / 行动 / 惊悚
◎语  言 英语 / 俄语
◎上映日期 1997-07-21(加州洛杉矶世纪城首映) / 1997-07-25(美国)
◎IMDb评分  6.5/10 from 163,071 users
◎IMDb链接  http://www.imdb.com/title/tt0118571/
◎豆瓣评分 7.5/10 from 55068 users
◎豆瓣链接 https://movie.douban.com/subject/1293537/
◎片  长 124分钟
◎导  演 沃尔夫冈·彼德森
◎主  演 哈里森·福特
      加里·奥德曼
      格伦·克洛斯
      温迪·古逊
      利塞尔·马修斯
      保罗·吉尔福伊尔
      山德·贝克利
      威廉姆·H·梅西
      迪恩·斯托克维尔
      汤姆·埃沃雷特
      尤尔根·普洛斯诺
      唐娜·布洛克
      迈克尔·雷·米勒
      卡尔·温特劳布
      埃勒斯特·莱瑟姆
      埃利亚·巴斯金
      列万·乌恰尼什维利
      戴维瓦蒂姆
      安德鲁·迪沃夫
      伊利亚·沃里克
      克里斯·豪厄尔
      斯宾塞·加雷特
      比尔·斯米托洛维奇
      菲利普·贝克·霍尔
      艾伯特·欧文斯
      威拉德·E·普
      艾伦·伍尔夫
      丹·肖尔
      大卫·简诺坡罗斯
      格伦·莫肖尔
      理查德·多伊尔
      唐·麦克马纳斯
      J·A·普雷斯顿

◎简  介 

  俄美两国策齐截起反恐行动,派出特种军队擒获了把握核兵器的哈萨克王国独裁者伊万?雷迪克将军(Jurgen Prochnow 饰)。数周后的庆功宴上,曾为越战老兵的美国总统詹姆斯?马舍尔(哈里森?福特Harrison Ford 饰)针对可骇份子和独裁政权颁发了倔强而出色的演说。莫斯科之旅美满竣事,总同一家及其政要乘空军一号返回美国,同业的还有艾格(加里?奥德曼 Gary Oldman 饰)带队的俄罗斯媒体工作职员。
  平安职员百密一疏,艾格的实在身份是效忠于雷迪克将军的可骇份子。飞机腾飞后,艾格和同伴们劫持飞机,绑架美国政要及总统家人,只要詹姆斯侥幸逃走。可骇份子要求俄美开释雷迪克将军,而存身空军一号中的詹姆斯则和这群强盗展开殊死决战……

◎获奖情况 

  第70届奥斯卡金像奖 (1998)
  最好剪辑(提名) 理查德·弗朗西斯-布鲁斯
  最好声响(提名) 道格·亨普希尔 /  保罗·马瑟 /  基思·A·韦斯特 /  里克·克莱恩

  第21届日本电影学院奖 (1998)
  最好外语片(提名)


  1. Video
  2. ID                                       : 1
  3. Format                                   : AVC
  4. Format/Info                              : Advanced Video Codec
  5. Format profile                           : [url=/cdn-cgi/l/email-protection][email protected][/url]
  6. Format settings                          : CABAC / 5 Ref Frames
  7. Format settings, CABAC                   : Yes
  8. Format settings, ReFrames                : 5 frames
  9. Codec ID                                 : V_MPEG4/ISO/AVC
  10. Duration                                 : 2 h 4 min
  11. Bit rate                                 : 13.3 Mb/s
  12. Width                                    : 1 920 pixels
  13. Height                                   : 800 pixels
  14. Display aspect ratio                     : 2.40:1
  15. Frame rate mode                          : Constant
  16. Frame rate                               : 23.976 (24000/1001) FPS
  17. Color space                              : YUV
  18. Chroma subsampling                       : 4:2:0
  19. Bit depth                                : 8 bits
  20. Scan type                                : Progressive
  21. Bits/(Pixel*Frame)                       : 0.362
  22. Stream size                              : 11.6 GiB (73%)
  23. Title                                    : Air.Force.One.1997.REMASTERED.1080p.BluRay.x264.DTS-HD.MA.7.1-SWTYBLZ
  24. Writing library                          : x264 core 157 r2935 545de2f
  25. Encoding settings                        : cabac=1 / ref=5 / deblock=1:-1:-1 / analyse=0x3:0x133 / me=umh / subme=10 / psy=1 / psy_rd=1.00:0.15 / mixed_ref=1 / me_range=48 / chroma_me=1 / trellis=2 / 8x8dct=1 / cqm=0 / deadzone=21,11 / fast_pskip=1 / chroma_qp_offset=-3 / threads=25 / lookahead_threads=4 / sliced_threads=0 / nr=0 / decimate=0 / interlaced=0 / bluray_compat=0 / constrained_intra=0 / bframes=8 / b_pyramid=2 / b_adapt=2 / b_bias=0 / direct=3 / weightb=1 / open_gop=0 / weightp=2 / keyint=250 / keyint_min=23 / scenecut=40 / intra_refresh=0 / rc_lookahead=60 / rc=crf / mbtree=1 / crf=19.0 / qcomp=0.60 / qpmin=0 / qpmax=69 / qpstep=4 / ip_ratio=1.40 / aq=1:1.00
  26. Language                                 : English
  27. Default                                  : Yes
  28. Forced                                   : No

  29. Audio
  30. ID                                       : 2
  31. Format                                   : DTS XLL
  32. Format/Info                              : Digital Theater Systems
  33. Commercial name                          : DTS-HD Master Audio
  34. Codec ID                                 : A_DTS
  35. Duration                                 : 2 h 4 min
  36. Bit rate mode                            : Variable
  37. Bit rate                                 : 4 766 kb/s
  38. Channel(s)                               : 8 channels
  39. Channel layout                           : C L R LFE Lb Rb Lss Rss
  40. Sampling rate                            : 48.0 kHz
  41. Frame rate                               : 93.750 FPS (512 SPF)
  42. Bit depth                                : 24 bits
  43. Compression mode                         : Lossless
  44. Stream size                              : 4.15 GiB (26%)
  45. Title                                    : Air.Force.One.1997.REMASTERED.1080p.BluRay.x264.DTS-HD.MA.7.1-SWTYBLZ
  46. Language                                 : English
  47. Default                                  : No
  48. Forced                                   : No

  49. Text #1
  50. ID                                       : 3
  51. Format                                   : UTF-8
  52. Codec ID                                 : S_TEXT/UTF8
  53. Codec ID/Info                            : UTF-8 Plain Text
  54. Duration                                 : 1 h 17 min
  55. Bit rate                                 : 2 b/s
  56. Count of elements                        : 54
  57. Stream size                              : 1.21 KiB (0%)
  58. Title                                    : English-FORCED-SRT
  59. Language                                 : English
  60. Default                                  : Yes
  61. Forced                                   : Yes

  62. Text #2
  63. ID                                       : 4
  64. Format                                   : UTF-8
  65. Codec ID                                 : S_TEXT/UTF8
  66. Codec ID/Info                            : UTF-8 Plain Text
  67. Duration                                 : 1 h 53 min
  68. Bit rate                                 : 56 b/s
  69. Count of elements                        : 1249
  70. Stream size                              : 46.9 KiB (0%)
  71. Title                                    : English-SRT
  72. Language                                 : English
  73. Default                                  : No
  74. Forced                                   : No

  75. Text #3
  76. ID                                       : 5
  77. Format                                   : UTF-8
  78. Codec ID                                 : S_TEXT/UTF8
  79. Codec ID/Info                            : UTF-8 Plain Text
  80. Duration                                 : 1 h 53 min
  81. Bit rate                                 : 56 b/s
  82. Count of elements                        : 1245
  83. Stream size                              : 46.8 KiB (0%)
  84. Title                                    : English-SDH-SRT
  85. Language                                 : English
  86. Default                                  : No
  87. Forced                                   : No

  88. Text #4
  89. ID                                       : 6
  90. Format                                   : PGS
  91. Muxing mode                              : zlib
  92. Codec ID                                 : S_HDMV/PGS
  93. Codec ID/Info                            : Picture based subtitle format used on BDs/HD-DVDs
  94. Duration                                 : 1 h 57 min
  95. Bit rate                                 : 34.7 kb/s
  96. Count of elements                        : 2915
  97. Stream size                              : 29.3 MiB (0%)
  98. Title                                    : English-PGS
  99. Language                                 : English
  100. Default                                  : No
  101. Forced                                   : No

  102. Text #5
  103. ID                                       : 7
  104. Format                                   : PGS
  105. Muxing mode                              : zlib
  106. Codec ID                                 : S_HDMV/PGS
  107. Codec ID/Info                            : Picture based subtitle format used on BDs/HD-DVDs
  108. Duration                                 : 1 h 53 min
  109. Bit rate                                 : 31.4 kb/s
  110. Count of elements                        : 2491
  111. Stream size                              : 25.5 MiB (0%)
  112. Title                                    : English-SDH-PGS
  113. Language                                 : English
  114. Default                                  : No
  115. Forced                                   : No

  116. Text #6
  117. ID                                       : 8
  118. Format                                   : PGS
  119. Muxing mode                              : zlib
  120. Codec ID                                 : S_HDMV/PGS
  121. Codec ID/Info                            : Picture based subtitle format used on BDs/HD-DVDs
  122. Duration                                 : 1 h 54 min
  123. Bit rate                                 : 30.1 kb/s
  124. Count of elements                        : 2447
  125. Stream size                              : 24.6 MiB (0%)
  126. Title                                    : French-PGS
  127. Language                                 : French
  128. Default                                  : No
  129. Forced                                   : No

  130. Text #7
  131. ID                                       : 9
  132. Format                                   : PGS
  133. Muxing mode                              : zlib
  134. Codec ID                                 : S_HDMV/PGS
  135. Codec ID/Info                            : Picture based subtitle format used on BDs/HD-DVDs
  136. Duration                                 : 1 h 56 min
  137. Bit rate                                 : 27.9 kb/s
  138. Count of elements                        : 2447
  139. Stream size                              : 23.2 MiB (0%)
  140. Title                                    : Spanish-PGS
  141. Language                                 : Spanish
  142. Default                                  : No
  143. Forced                                   : No

  144. Text #8
  145. ID                                       : 10
  146. Format                                   : PGS
  147. Muxing mode                              : zlib
  148. Codec ID                                 : S_HDMV/PGS
  149. Codec ID/Info                            : Picture based subtitle format used on BDs/HD-DVDs
  150. Duration                                 : 2 h 1 min
  151. Bit rate                                 : 1 222 b/s
  152. Count of elements                        : 156
  153. Stream size                              : 1.06 MiB (0%)
  154. Title                                    : French-PGS
  155. Language                                 : French
  156. Default                                  : No
  157. Forced                                   : No

  158. Menu
  159. 00:00:00.000                             : :Chapter 1
  160. 00:09:18.599                             : :Chapter 2
  161. 00:15:38.145                             : :Chapter 3
  162. 00:19:59.448                             : :Chapter 4
  163. 00:29:07.746                             : :Chapter 5
  164. 00:33:28.131                             : :Chapter 6
  165. 00:39:47.718                             : :Chapter 7
  166. 00:47:17.125                             : :Chapter 8
  167. 00:54:42.904                             : :Chapter 9
  168. 01:01:44.200                             : :Chapter 10
  169. 01:08:45.037                             : :Chapter 11
  170. 01:16:33.005                             : :Chapter 12
  171. 01:26:26.389                             : :Chapter 13
  172. 01:33:02.660                             : :Chapter 14
  173. 01:41:58.821                             : :Chapter 15
  174. 01:50:53.688                             : :Chapter 16
复制代码

复制代码

空军一号 Air.Force.One.1997.REMASTERED.1080p.BluRay.x264.DTS-HD.MA.7.1-SWTYBLZ 15.78GB-2.png 空军一号 Air.Force.One.1997.REMASTERED.1080p.BluRay.x264.DTS-HD.MA.7.1-SWTYBLZ 15.78GB-3.png 空军一号 Air.Force.One.1997.REMASTERED.1080p.BluRay.x264.DTS-HD.MA.7.1-SWTYBLZ 15.78GB-4.png





回复

使用道具 举报

级别:专业龙套 Lv.4

UID
8875
注册时间
2018-10-24
最后登录
2019-1-21
听众
3
收听
0
主题
0
蓝光币
472 枚
贡献
0 点
QQ
发表于 2018-11-9 15:24:44 | 显示全部楼层
每天都来中国论坛看看有什么电影!
回复

使用道具 举报

级别:群众演员 Lv.3

UID
9360
注册时间
2018-11-3
最后登录
2019-1-21
听众
0
收听
0
主题
0
蓝光币
414 枚
贡献
0 点
QQ
发表于 2018-11-9 16:25:02 | 显示全部楼层

每天都来中国论坛看看有什么电影!
回复

使用道具 举报

懒得打字嘛,点击右侧快捷回复 【右侧内容,后台自定义】
您需要登录后才可以回帖 登录 | 立即注册

本版积分规则

QQ|Archiver|手机版|小黑屋|中国高清网 |网站地图

GMT+8, 2019-1-22 07:46 , Processed in 0.186949 second(s), 41 queries .

Powered by HDchina X3.4

Copyright 2017-2018©HDchina.All right reserved

返回顶部 联系我们