你所知道的4K资源这里全部都有 4K电影 | 4K视频 | 4K壁纸 | 4K MV 怎么播放4K视频 | 4K电视演示片

教你玩转4K私人与家庭影院存储 NAS组装 | 黑群辉 家庭/影院Nas论坛

4K家庭影院信号源与视频设备知识 4K蓝光高清播放机 - 那个品牌好? 4K投影机论坛 | 4K电视机论坛

手把手教你搭建属于自己的家庭影院 4K家庭影院案例 | 家庭影院音频 4K家庭影院论坛

查看: 43|回复: 2

[剧情片] 空军一号 Air.Force.One.1997.REMASTERED.1080p.BluRay.x264.TrueHD.7.1.Atmos-SWTYBLZ 17.01GB

[复制链接]

级别:资源管理组

UID
1
注册时间
2017-10-20
最后登录
2018-11-21
听众
0
收听
0
主题
72220
蓝光币
99015 枚
贡献
142028 点
发表于 2018-11-9 09:33:27 | 显示全部楼层 |阅读模式

空军一号 Air.Force.One.1997.REMASTERED.1080p.BluRay.x264.TrueHD.7.1.Atmos-SWTYBLZ 17.01GB-1.jpg
◎译  名 空军一号 / AFO
◎片  名 空军一号 Air Force One
◎年  代 1997
◎国  家 美国 / 德国
◎类  别 剧情 / 行动 / 惊悚
◎语  言 英语 / 俄语
◎上映日期 1997-07-21(加州洛杉矶世纪城首映) / 1997-07-25(美国)
◎IMDb评分  6.5/10 from 163,071 users
◎IMDb链接  http://www.imdb.com/title/tt0118571/
◎豆瓣评分 7.5/10 from 55068 users
◎豆瓣链接 https://movie.douban.com/subject/1293537/
◎片  长 124分钟
◎导  演 沃尔夫冈·彼德森
◎主  演 哈里森·福特
      加里·奥德曼
      格伦·克洛斯
      温迪·古逊
      利塞尔·马修斯
      保罗·吉尔福伊尔
      山德·贝克利
      威廉姆·H·梅西
      迪恩·斯托克维尔
      汤姆·埃沃雷特
      尤尔根·普洛斯诺
      唐娜·布洛克
      迈克尔·雷·米勒
      卡尔·温特劳布
      埃勒斯特·莱瑟姆
      埃利亚·巴斯金
      列万·乌恰尼什维利
      戴维瓦蒂姆
      安德鲁·迪沃夫
      伊利亚·沃里克
      克里斯·豪厄尔
      斯宾塞·加雷特
      比尔·斯米托洛维奇
      菲利普·贝克·霍尔
      艾伯特·欧文斯
      威拉德·E·普
      艾伦·伍尔夫
      丹·肖尔
      大卫·简诺坡罗斯
      格伦·莫肖尔
      理查德·多伊尔
      唐·麦克马纳斯
      J·A·普雷斯顿

◎简  介 

  俄美两国策齐截起反恐行动,派出特种军队擒获了把握核兵器的哈萨克王国独裁者伊万?雷迪克将军(Jurgen Prochnow 饰)。数周后的庆功宴上,曾为越战老兵的美国总统詹姆斯?马舍尔(哈里森?福特Harrison Ford 饰)针对可骇份子和独裁政权颁发了倔强而出色的演说。莫斯科之旅美满竣事,总同一家及其政要乘空军一号返回美国,同业的还有艾格(加里?奥德曼 Gary Oldman 饰)带队的俄罗斯媒体工作职员。
  平安职员百密一疏,艾格的实在身份是效忠于雷迪克将军的可骇份子。飞机腾飞后,艾格和同伴们劫持飞机,绑架美国政要及总统家人,只要詹姆斯侥幸逃走。可骇份子要求俄美开释雷迪克将军,而存身空军一号中的詹姆斯则和这群强盗展开殊死决战……

◎获奖情况 

  第70届奥斯卡金像奖 (1998)
  最好剪辑(提名) 理查德·弗朗西斯-布鲁斯
  最好声响(提名) 道格·亨普希尔 /  保罗·马瑟 /  基思·A·韦斯特 /  里克·克莱恩

  第21届日本电影学院奖 (1998)
  最好外语片(提名)

  • Video
  • ID                                       : 1
  • Format                                   : AVC
  • Format/Info                              : Advanced Video Codec
  • Format profile                           : [email protected]
  • Format settings                          : CABAC / 5 Ref Frames
  • Format settings, CABAC                   : Yes
  • Format settings, ReFrames                : 5 frames
  • Codec ID                                 : V_MPEG4/ISO/AVC
  • Duration                                 : 2 h 4 min
  • Bit rate                                 : 13.3 Mb/s
  • Width                                    : 1 920 pixels
  • Height                                   : 800 pixels
  • Display aspect ratio                     : 2.40:1
  • Frame rate mode                          : Constant
  • Frame rate                               : 23.976 (24000/1001) FPS
  • Color space                              : YUV
  • Chroma subsampling                       : 4:2:0
  • Bit depth                                : 8 bits
  • Scan type                                : Progressive
  • Bits/(Pixel*Frame)                       : 0.362
  • Stream size                              : 11.6 GiB (68%)
  • Title                                    : Air.Force.One.1997.REMASTERED.1080p.BluRay.x264.TrueHD.7.1.Atmos-SWTYBLZ
  • Writing library                          : x264 core 157 r2935 545de2f
  • Encoding settings                        : cabac=1 / ref=5 / deblock=1:-1:-1 / analyse=0x3:0x133 / me=umh / subme=10 / psy=1 / psy_rd=1.00:0.15 / mixed_ref=1 / me_range=48 / chroma_me=1 / trellis=2 / 8x8dct=1 / cqm=0 / deadzone=21,11 / fast_pskip=1 / chroma_qp_offset=-3 / threads=25 / lookahead_threads=4 / sliced_threads=0 / nr=0 / decimate=0 / interlaced=0 / bluray_compat=0 / constrained_intra=0 / bframes=8 / b_pyramid=2 / b_adapt=2 / b_bias=0 / direct=3 / weightb=1 / open_gop=0 / weightp=2 / keyint=250 / keyint_min=23 / scenecut=40 / intra_refresh=0 / rc_lookahead=60 / rc=crf / mbtree=1 / crf=19.0 / qcomp=0.60 / qpmin=0 / qpmax=69 / qpstep=4 / ip_ratio=1.40 / aq=1:1.00
  • Language                                 : English
  • Default                                  : Yes
  • Forced                                   : No
  • Audio #1
  • ID                                       : 2
  • Format                                   : MLP FBA 16-ch
  • Format/Info                              : Meridian Lossless Packing FBA with 16-channel presentation
  • Commercial name                          : Dolby TrueHD with Dolby Atmos
  • Codec ID                                 : A_TRUEHD
  • Duration                                 : 2 h 4 min
  • Bit rate mode                            : Variable
  • Bit rate                                 : 5 464 kb/s
  • Maximum bit rate                         : 8 559 kb/s
  • Channel(s)                               : 8 channels
  • Channel layout                           : L R C LFE Ls Rs Lb Rb
  • Sampling rate                            : 48.0 kHz
  • Frame rate                               : 1 200.000 FPS (40 SPF)
  • Compression mode                         : Lossless
  • Stream size                              : 4.75 GiB (28%)
  • Title                                    : Air.Force.One.1997.REMASTERED.1080p.BluRay.x264.TrueHD.7.1.Atmos-SWTYBLZ
  • Language                                 : English
  • Default                                  : Yes
  • Forced                                   : No
  • Number of dynamic objects                : 11
  • Bed channel count                        : 1 channel
  • Bed channel configuration                : LFE
  • Audio #2
  • ID                                       : 3
  • Format                                   : AC-3
  • Format/Info                              : Audio Coding 3
  • Commercial name                          : Dolby Digital
  • Codec ID                                 : A_AC3
  • Duration                                 : 2 h 4 min
  • Bit rate mode                            : Constant
  • Bit rate                                 : 640 kb/s
  • Channel(s)                               : 6 channels
  • Channel layout                           : L R C LFE Ls Rs
  • Sampling rate                            : 48.0 kHz
  • Frame rate                               : 31.250 FPS (1536 SPF)
  • Bit depth                                : 16 bits
  • Compression mode                         : Lossy
  • Stream size                              : 570 MiB (3%)
  • Title                                    : Air.Force.One.1997.REMASTERED.1080p.BluRay.x264.TrueHD.7.1.Atmos-SWTYBLZ
  • Language                                 : English
  • Service kind                             : Complete Main
  • Default                                  : No
  • Forced                                   : No
  • Text #1
  • ID                                       : 4
  • Format                                   : UTF-8
  • Codec ID                                 : S_TEXT/UTF8
  • Codec ID/Info                            : UTF-8 Plain Text
  • Duration                                 : 1 h 17 min
  • Bit rate                                 : 2 b/s
  • Count of elements                        : 54
  • Stream size                              : 1.21 KiB (0%)
  • Title                                    : English-FORCED-SRT
  • Language                                 : English
  • Default                                  : Yes
  • Forced                                   : Yes
  • Text #2
  • ID                                       : 5
  • Format                                   : UTF-8
  • Codec ID                                 : S_TEXT/UTF8
  • Codec ID/Info                            : UTF-8 Plain Text
  • Duration                                 : 1 h 53 min
  • Bit rate                                 : 56 b/s
  • Count of elements                        : 1249
  • Stream size                              : 46.9 KiB (0%)
  • Title                                    : English-SRT
  • Language                                 : English
  • Default                                  : No
  • Forced                                   : No
  • Text #3
  • ID                                       : 6
  • Format                                   : UTF-8
  • Codec ID                                 : S_TEXT/UTF8
  • Codec ID/Info                            : UTF-8 Plain Text
  • Duration                                 : 1 h 53 min
  • Bit rate                                 : 56 b/s
  • Count of elements                        : 1245
  • Stream size                              : 46.8 KiB (0%)
  • Title                                    : English-SDH-SRT
  • Language                                 : English
  • Default                                  : No
  • Forced                                   : No
  • Text #4
  • ID                                       : 7
  • Format                                   : PGS
  • Muxing mode                              : zlib
  • Codec ID                                 : S_HDMV/PGS
  • Codec ID/Info                            : Picture based subtitle format used on BDs/HD-DVDs
  • Duration                                 : 1 h 57 min
  • Bit rate                                 : 34.7 kb/s
  • Count of elements                        : 2915
  • Stream size                              : 29.3 MiB (0%)
  • Title                                    : English-PGS
  • Language                                 : English
  • Default                                  : No
  • Forced                                   : No
  • Text #5
  • ID                                       : 8
  • Format                                   : PGS
  • Muxing mode                              : zlib
  • Codec ID                                 : S_HDMV/PGS
  • Codec ID/Info                            : Picture based subtitle format used on BDs/HD-DVDs
  • Duration                                 : 1 h 53 min
  • Bit rate                                 : 31.4 kb/s
  • Count of elements                        : 2491
  • Stream size                              : 25.5 MiB (0%)
  • Title                                    : English-SDH-PGS
  • Language                                 : English
  • Default                                  : No
  • Forced                                   : No
  • Text #6
  • ID                                       : 9
  • Format                                   : PGS
  • Muxing mode                              : zlib
  • Codec ID                                 : S_HDMV/PGS
  • Codec ID/Info                            : Picture based subtitle format used on BDs/HD-DVDs
  • Duration                                 : 1 h 54 min
  • Bit rate                                 : 30.1 kb/s
  • Count of elements                        : 2447
  • Stream size                              : 24.6 MiB (0%)
  • Title                                    : French-PGS
  • Language                                 : French
  • Default                                  : No
  • Forced                                   : No
  • Text #7
  • ID                                       : 10
  • Format                                   : PGS
  • Muxing mode                              : zlib
  • Codec ID                                 : S_HDMV/PGS
  • Codec ID/Info                            : Picture based subtitle format used on BDs/HD-DVDs
  • Duration                                 : 1 h 56 min
  • Bit rate                                 : 27.9 kb/s
  • Count of elements                        : 2447
  • Stream size                              : 23.2 MiB (0%)
  • Title                                    : Spanish-PGS
  • Language                                 : Spanish
  • Default                                  : No
  • Forced                                   : No
  • Text #8
  • ID                                       : 11
  • Format                                   : PGS
  • Muxing mode                              : zlib
  • Codec ID                                 : S_HDMV/PGS
  • Codec ID/Info                            : Picture based subtitle format used on BDs/HD-DVDs
  • Duration                                 : 2 h 1 min
  • Bit rate                                 : 1 222 b/s
  • Count of elements                        : 156
  • Stream size                              : 1.06 MiB (0%)
  • Title                                    : French-PGS
  • Language                                 : French
  • Default                                  : No
  • Forced                                   : No
  • Menu
  • 00:00:00.000                             : :Chapter 1
  • 00:09:18.599                             : :Chapter 2
  • 00:15:38.145                             : :Chapter 3
  • 00:19:59.448                             : :Chapter 4
  • 00:29:07.746                             : :Chapter 5
  • 00:33:28.131                             : :Chapter 6
  • 00:39:47.718                             : :Chapter 7
  • 00:47:17.125                             : :Chapter 8
  • 00:54:42.904                             : :Chapter 9
  • 01:01:44.200                             : :Chapter 10
  • 01:08:45.037                             : :Chapter 11
  • 01:16:33.005                             : :Chapter 12
  • 01:26:26.389                             : :Chapter 13
  • 01:33:02.660                             : :Chapter 14
  • 01:41:58.821                             : :Chapter 15
  • 01:50:53.688                             : :Chapter 16

复制代码

空军一号 Air.Force.One.1997.REMASTERED.1080p.BluRay.x264.TrueHD.7.1.Atmos-SWTYBLZ 17.01GB-2.png 空军一号 Air.Force.One.1997.REMASTERED.1080p.BluRay.x264.TrueHD.7.1.Atmos-SWTYBLZ 17.01GB-3.png 空军一号 Air.Force.One.1997.REMASTERED.1080p.BluRay.x264.TrueHD.7.1.Atmos-SWTYBLZ 17.01GB-4.png



回复

使用道具 举报

级别:普通观众 Lv.2

UID
6807
注册时间
2018-9-9
最后登录
2018-11-9
听众
1
收听
0
主题
0
蓝光币
0 枚
贡献
0 点
QQ
发表于 2018-11-9 22:24:10 | 显示全部楼层
空军一号 / AFO
回复

使用道具 举报

级别:群众演员 Lv.3

UID
9231
注册时间
2018-10-31
最后登录
2018-11-21
听众
0
收听
0
主题
0
蓝光币
218 枚
贡献
0 点
QQ
发表于 2018-11-9 22:33:41 | 显示全部楼层


感谢楼主的无私分享!
回复

使用道具 举报

您需要登录后才可以回帖 登录 | 立即注册

本版积分规则

QQ|Archiver|手机版|小黑屋|中国高清网  |网站地图

GMT+8, 2018-11-21 22:00 , Processed in 0.198684 second(s), 53 queries .

Powered by HDchina X3.4

Copyright 2017-2018©HDchina.All right reserved

返回顶部 联系我们