你所知道的4K资源这里全部都有 4K电影 | 4K视频 | 4K壁纸 | 4K MV 怎么播放4K视频 | 4K电视演示片

教你玩转4K私人与家庭影院存储 NAS组装 | 黑群辉 家庭/影院Nas论坛

4K家庭影院信号源与视频设备知识 4K蓝光高清播放机 - 那个品牌好? 4K投影机论坛 | 4K电视机论坛

手把手教你搭建属于自己的家庭影院 4K家庭影院案例 | 家庭影院音频 4K家庭影院论坛

查看: 179|回复: 3

[动作片] 第一滴血3/兰博3 Rambo.III.1988.REMASTERED.1080p.BluRay.x264.DTS-HD.MA.5.1-SWTYBLZ 11.68GB

[复制链接]

 成长值: 1040

级别:资源管理组

注册时间
2017-10-20
最后登录
2019-4-23
听众
0
收听
0
主题
76979
蓝光币
8521 枚
贡献
1287 点
发表于 2018-11-9 09:32:38 | 显示全部楼层 |阅读模式

第一滴血3/兰博3 Rambo.III.1988.REMASTERED.1080p.BluRay.x264.DTS-HD.MA.5.1-SWTYBLZ 11.68GB-1.jpg
◎译  名 第一滴血3 / 兰博3
◎片  名 第一滴血3 Rambo III
◎年  代 1988
◎国  家 美国
◎类  别 行动 / 惊悚 / 冒险
◎语  言 英语 / 俄语
◎上映日期 1988-05-25(美国)
◎IMDb评分  5.8/10 from 105,239 users
◎IMDb链接  http://www.imdb.com/title/tt0095956/
◎豆瓣评分 7.5/10 from 21864 users
◎豆瓣链接 https://movie.douban.com/subject/1300399/
◎片  长 102 分钟 / Finland: 87 分钟(1988) (heavily cut) (VHS version)
◎导  演 彼得·麦克唐纳德
◎主  演 西尔维斯特·史泰龙
      理查德·克里纳
      马克德容
      柯特伍德·史姑娘
      Spiros Focás
      Sasson Gabai

◎简  介 

  历经无数烽火与生死考验,力大无穷的豪情勇士约翰·兰博(西尔维斯特·史泰龙 Sylvester Stallone 饰)放动手中的杀人兵器,在泰国过起了安静的修行生活。这一日,特劳特曼上校(理查德·克里纳 Richard Crenna        饰)忽然出现在他眼前。此前未几,上校受命率军队前往阿富汗,辅佐当地的圣战勇士抵挡苏联人的入侵。虽然照片中阿富汗平民饱受内奸侵犯和践踏的情形惊心动魄,但兰博还是拒绝了上校的约请。某晚,特劳特曼的军队在履利用命途中遭到苏联军队的伏击,其本人也不幸沦为阶下囚。得知这一消息,兰博再也没法静观其变。浴血战士重披战甲,单身闯入布满凶恶的阿富汗要地,展开一场严重纷呈的绝命救援……
  本片获1989年金酸梅最差男配角奖。


  1. Video
  2. ID                                       : 1
  3. Format                                   : AVC
  4. Format/Info                              : Advanced Video Codec
  5. Format profile                           : [url=/cdn-cgi/l/email-protection][email protected][/url]
  6. Format settings                          : CABAC / 5 Ref Frames
  7. Format settings, CABAC                   : Yes
  8. Format settings, ReFrames                : 5 frames
  9. Codec ID                                 : V_MPEG4/ISO/AVC
  10. Duration                                 : 1 h 41 min
  11. Bit rate                                 : 12.2 Mb/s
  12. Width                                    : 1 920 pixels
  13. Height                                   : 816 pixels
  14. Display aspect ratio                     : 2.35:1
  15. Frame rate mode                          : Constant
  16. Frame rate                               : 24.000 FPS
  17. Color space                              : YUV
  18. Chroma subsampling                       : 4:2:0
  19. Bit depth                                : 8 bits
  20. Scan type                                : Progressive
  21. Bits/(Pixel*Frame)                       : 0.325
  22. Stream size                              : 8.66 GiB (74%)
  23. Title                                    : Rambo.III.1988.REMASTERED.1080p.BluRay.x264.DTS-HD.MA.5.1-SWTYBLZ
  24. Writing library                          : x264 core 157 r2935 545de2f
  25. Encoding settings                        : cabac=1 / ref=5 / deblock=1:-1:-1 / analyse=0x3:0x133 / me=umh / subme=10 / psy=1 / psy_rd=1.00:0.15 / mixed_ref=1 / me_range=48 / chroma_me=1 / trellis=2 / 8x8dct=1 / cqm=0 / deadzone=21,11 / fast_pskip=1 / chroma_qp_offset=-3 / threads=25 / lookahead_threads=4 / sliced_threads=0 / nr=0 / decimate=0 / interlaced=0 / bluray_compat=0 / constrained_intra=0 / bframes=8 / b_pyramid=2 / b_adapt=2 / b_bias=0 / direct=3 / weightb=1 / open_gop=0 / weightp=2 / keyint=250 / keyint_min=24 / scenecut=40 / intra_refresh=0 / rc_lookahead=60 / rc=crf / mbtree=1 / crf=21.0 / qcomp=0.60 / qpmin=0 / qpmax=69 / qpstep=4 / ip_ratio=1.40 / aq=1:1.00
  26. Default                                  : Yes
  27. Forced                                   : No

  28. Audio
  29. ID                                       : 2
  30. Format                                   : DTS XLL
  31. Format/Info                              : Digital Theater Systems
  32. Commercial name                          : DTS-HD Master Audio
  33. Codec ID                                 : A_DTS
  34. Duration                                 : 1 h 41 min
  35. Bit rate mode                            : Variable
  36. Bit rate                                 : 4 242 kb/s
  37. Channel(s)                               : 6 channels
  38. Channel layout                           : C L R Ls Rs LFE
  39. Sampling rate                            : 48.0 kHz
  40. Frame rate                               : 93.750 FPS (512 SPF)
  41. Bit depth                                : 24 bits
  42. Compression mode                         : Lossless
  43. Stream size                              : 3.01 GiB (26%)
  44. Title                                    : Rambo.III.1988.REMASTERED.1080p.BluRay.x264.DTS-HD.MA.5.1-SWTYBLZ
  45. Language                                 : English
  46. Default                                  : Yes
  47. Forced                                   : No

  48. Text #1
  49. ID                                       : 3
  50. Format                                   : UTF-8
  51. Codec ID                                 : S_TEXT/UTF8
  52. Codec ID/Info                            : UTF-8 Plain Text
  53. Duration                                 : 1 h 28 min
  54. Bit rate                                 : 22 b/s
  55. Count of elements                        : 460
  56. Stream size                              : 14.8 KiB (0%)
  57. Title                                    : English-SRT
  58. Language                                 : English
  59. Default                                  : No
  60. Forced                                   : No

  61. Text #2
  62. ID                                       : 4
  63. Format                                   : PGS
  64. Muxing mode                              : zlib
  65. Codec ID                                 : S_HDMV/PGS
  66. Codec ID/Info                            : Picture based subtitle format used on BDs/HD-DVDs
  67. Duration                                 : 1 h 30 min
  68. Bit rate                                 : 13.7 kb/s
  69. Count of elements                        : 966
  70. Stream size                              : 8.90 MiB (0%)
  71. Title                                    : English-PGS
  72. Language                                 : English
  73. Default                                  : Yes
  74. Forced                                   : No

  75. Text #3
  76. ID                                       : 5
  77. Format                                   : PGS
  78. Muxing mode                              : zlib
  79. Codec ID                                 : S_HDMV/PGS
  80. Codec ID/Info                            : Picture based subtitle format used on BDs/HD-DVDs
  81. Duration                                 : 1 h 32 min
  82. Bit rate                                 : 12.9 kb/s
  83. Count of elements                        : 1070
  84. Stream size                              : 8.61 MiB (0%)
  85. Title                                    : French-PGS
  86. Language                                 : French
  87. Default                                  : No
  88. Forced                                   : No

  89. Text #4
  90. ID                                       : 6
  91. Format                                   : PGS
  92. Muxing mode                              : zlib
  93. Codec ID                                 : S_HDMV/PGS
  94. Codec ID/Info                            : Picture based subtitle format used on BDs/HD-DVDs
  95. Duration                                 : 1 h 33 min
  96. Bit rate                                 : 15.0 kb/s
  97. Count of elements                        : 984
  98. Stream size                              : 9.96 MiB (0%)
  99. Title                                    : German-PGS
  100. Language                                 : German
  101. Default                                  : No
  102. Forced                                   : No

  103. Text #5
  104. ID                                       : 7
  105. Format                                   : PGS
  106. Muxing mode                              : zlib
  107. Codec ID                                 : S_HDMV/PGS
  108. Codec ID/Info                            : Picture based subtitle format used on BDs/HD-DVDs
  109. Duration                                 : 31 min 54 s
  110. Bit rate                                 : 907 b/s
  111. Count of elements                        : 26
  112. Stream size                              : 212 KiB (0%)
  113. Title                                    : German-PGS
  114. Language                                 : German
  115. Default                                  : No
  116. Forced                                   : No

  117. Text #6
  118. ID                                       : 8
  119. Format                                   : PGS
  120. Muxing mode                              : zlib
  121. Codec ID                                 : S_HDMV/PGS
  122. Codec ID/Info                            : Picture based subtitle format used on BDs/HD-DVDs
  123. Duration                                 : 31 min 54 s
  124. Bit rate                                 : 943 b/s
  125. Count of elements                        : 26
  126. Stream size                              : 221 KiB (0%)
  127. Title                                    : French-PGS
  128. Language                                 : French
  129. Default                                  : No
  130. Forced                                   : No

  131. Menu
  132. 00:00:00.000                             : :Chapter 1
  133. 00:07:19.458                             : :Chapter 2
  134. 00:14:30.375                             : :Chapter 3
  135. 00:25:23.000                             : :Chapter 4
  136. 00:30:14.250                             : :Chapter 5
  137. 00:36:18.666                             : :Chapter 6
  138. 00:48:47.166                             : :Chapter 7
  139. 00:58:49.375                             : :Chapter 8
  140. 01:09:51.458                             : :Chapter 9
  141. 01:17:14.958                             : :Chapter 10
  142. 01:26:29.500                             : :Chapter 11
  143. 01:34:47.166                             : :Chapter 12
复制代码

复制代码

第一滴血3/兰博3 Rambo.III.1988.REMASTERED.1080p.BluRay.x264.DTS-HD.MA.5.1-SWTYBLZ 11.68GB-2.png 第一滴血3/兰博3 Rambo.III.1988.REMASTERED.1080p.BluRay.x264.DTS-HD.MA.5.1-SWTYBLZ 11.68GB-3.png 第一滴血3/兰博3 Rambo.III.1988.REMASTERED.1080p.BluRay.x264.DTS-HD.MA.5.1-SWTYBLZ 11.68GB-4.png





回复

使用道具 举报

级别:普通观众 Lv.2

注册时间
2019-1-15
最后登录
2019-4-19
听众
2
收听
0
主题
0
蓝光币
22 枚
贡献
0 点
发表于 2019-1-19 14:34:44 | 显示全部楼层

这个帖子不回对不起自己!我想我是一天也不能离开中国高清电影网
回复

使用道具 举报

级别:初级观众 Lv.1

注册时间
2019-4-17
最后登录
2019-4-22
听众
0
收听
0
主题
0
蓝光币
1 枚
贡献
0 点
发表于 5 天前 | 显示全部楼层
谢谢分享
回复

使用道具 举报

级别:初级观众 Lv.1

注册时间
2019-4-17
最后登录
2019-4-22
听众
0
收听
0
主题
0
蓝光币
1 枚
贡献
0 点
发表于 5 天前 | 显示全部楼层
谢谢分享
回复

使用道具 举报

懒得打字嘛,点击右侧快捷回复 【右侧内容,后台自定义】
您需要登录后才可以回帖 登录 | 立即注册

本版积分规则

QQ|Archiver|手机版|小黑屋|中国高清网  |网站地图

GMT+8, 2019-4-23 17:52 , Processed in 0.145361 second(s), 41 queries .

Powered by HDchina X3.4

Copyright 2017-2018©HDchina.All right reserved

返回顶部 联系我们