你所知道的4K资源这里全部都有 4K电影 | 4K视频 | 4K壁纸 | 4K MV 怎么播放4K视频 | 4K电视演示片

教你玩转4K私人与家庭影院存储 NAS组装 | 黑群辉 家庭/影院Nas论坛

4K家庭影院信号源与视频设备知识 4K蓝光高清播放机 - 那个品牌好? 4K投影机论坛 | 4K电视机论坛

手把手教你搭建属于自己的家庭影院 4K家庭影院案例 | 家庭影院音频 4K家庭影院论坛

查看: 27|回复: 0

[动作片] 第一滴血3/兰博3 Rambo.III.1988.REMASTERED.1080p.BluRay.x264.DTS-HD.MA.5.1-SWTYBLZ 11.68GB

[复制链接]

级别:资源管理组

UID
1
注册时间
2017-10-20
最后登录
2018-11-21
听众
0
收听
0
主题
72220
蓝光币
99015 枚
贡献
142028 点
发表于 2018-11-9 09:32:38 | 显示全部楼层 |阅读模式

第一滴血3/兰博3 Rambo.III.1988.REMASTERED.1080p.BluRay.x264.DTS-HD.MA.5.1-SWTYBLZ 11.68GB-1.jpg
◎译  名 第一滴血3 / 兰博3
◎片  名 第一滴血3 Rambo III
◎年  代 1988
◎国  家 美国
◎类  别 行动 / 惊悚 / 冒险
◎语  言 英语 / 俄语
◎上映日期 1988-05-25(美国)
◎IMDb评分  5.8/10 from 105,239 users
◎IMDb链接  http://www.imdb.com/title/tt0095956/
◎豆瓣评分 7.5/10 from 21864 users
◎豆瓣链接 https://movie.douban.com/subject/1300399/
◎片  长 102 分钟 / Finland: 87 分钟(1988) (heavily cut) (VHS version)
◎导  演 彼得·麦克唐纳德
◎主  演 西尔维斯特·史泰龙
      理查德·克里纳
      马克德容
      柯特伍德·史姑娘
      Spiros Focás
      Sasson Gabai

◎简  介 

  历经无数烽火与生死考验,力大无穷的豪情勇士约翰·兰博(西尔维斯特·史泰龙 Sylvester Stallone 饰)放动手中的杀人兵器,在泰国过起了安静的修行生活。这一日,特劳特曼上校(理查德·克里纳 Richard Crenna        饰)忽然出现在他眼前。此前未几,上校受命率军队前往阿富汗,辅佐当地的圣战勇士抵挡苏联人的入侵。虽然照片中阿富汗平民饱受内奸侵犯和践踏的情形惊心动魄,但兰博还是拒绝了上校的约请。某晚,特劳特曼的军队在履利用命途中遭到苏联军队的伏击,其本人也不幸沦为阶下囚。得知这一消息,兰博再也没法静观其变。浴血战士重披战甲,单身闯入布满凶恶的阿富汗要地,展开一场严重纷呈的绝命救援……
  本片获1989年金酸梅最差男配角奖。

  • Video
  • ID                                       : 1
  • Format                                   : AVC
  • Format/Info                              : Advanced Video Codec
  • Format profile                           : [email protected]
  • Format settings                          : CABAC / 5 Ref Frames
  • Format settings, CABAC                   : Yes
  • Format settings, ReFrames                : 5 frames
  • Codec ID                                 : V_MPEG4/ISO/AVC
  • Duration                                 : 1 h 41 min
  • Bit rate                                 : 12.2 Mb/s
  • Width                                    : 1 920 pixels
  • Height                                   : 816 pixels
  • Display aspect ratio                     : 2.35:1
  • Frame rate mode                          : Constant
  • Frame rate                               : 24.000 FPS
  • Color space                              : YUV
  • Chroma subsampling                       : 4:2:0
  • Bit depth                                : 8 bits
  • Scan type                                : Progressive
  • Bits/(Pixel*Frame)                       : 0.325
  • Stream size                              : 8.66 GiB (74%)
  • Title                                    : Rambo.III.1988.REMASTERED.1080p.BluRay.x264.DTS-HD.MA.5.1-SWTYBLZ
  • Writing library                          : x264 core 157 r2935 545de2f
  • Encoding settings                        : cabac=1 / ref=5 / deblock=1:-1:-1 / analyse=0x3:0x133 / me=umh / subme=10 / psy=1 / psy_rd=1.00:0.15 / mixed_ref=1 / me_range=48 / chroma_me=1 / trellis=2 / 8x8dct=1 / cqm=0 / deadzone=21,11 / fast_pskip=1 / chroma_qp_offset=-3 / threads=25 / lookahead_threads=4 / sliced_threads=0 / nr=0 / decimate=0 / interlaced=0 / bluray_compat=0 / constrained_intra=0 / bframes=8 / b_pyramid=2 / b_adapt=2 / b_bias=0 / direct=3 / weightb=1 / open_gop=0 / weightp=2 / keyint=250 / keyint_min=24 / scenecut=40 / intra_refresh=0 / rc_lookahead=60 / rc=crf / mbtree=1 / crf=21.0 / qcomp=0.60 / qpmin=0 / qpmax=69 / qpstep=4 / ip_ratio=1.40 / aq=1:1.00
  • Default                                  : Yes
  • Forced                                   : No
  • Audio
  • ID                                       : 2
  • Format                                   : DTS XLL
  • Format/Info                              : Digital Theater Systems
  • Commercial name                          : DTS-HD Master Audio
  • Codec ID                                 : A_DTS
  • Duration                                 : 1 h 41 min
  • Bit rate mode                            : Variable
  • Bit rate                                 : 4 242 kb/s
  • Channel(s)                               : 6 channels
  • Channel layout                           : C L R Ls Rs LFE
  • Sampling rate                            : 48.0 kHz
  • Frame rate                               : 93.750 FPS (512 SPF)
  • Bit depth                                : 24 bits
  • Compression mode                         : Lossless
  • Stream size                              : 3.01 GiB (26%)
  • Title                                    : Rambo.III.1988.REMASTERED.1080p.BluRay.x264.DTS-HD.MA.5.1-SWTYBLZ
  • Language                                 : English
  • Default                                  : Yes
  • Forced                                   : No
  • Text #1
  • ID                                       : 3
  • Format                                   : UTF-8
  • Codec ID                                 : S_TEXT/UTF8
  • Codec ID/Info                            : UTF-8 Plain Text
  • Duration                                 : 1 h 28 min
  • Bit rate                                 : 22 b/s
  • Count of elements                        : 460
  • Stream size                              : 14.8 KiB (0%)
  • Title                                    : English-SRT
  • Language                                 : English
  • Default                                  : No
  • Forced                                   : No
  • Text #2
  • ID                                       : 4
  • Format                                   : PGS
  • Muxing mode                              : zlib
  • Codec ID                                 : S_HDMV/PGS
  • Codec ID/Info                            : Picture based subtitle format used on BDs/HD-DVDs
  • Duration                                 : 1 h 30 min
  • Bit rate                                 : 13.7 kb/s
  • Count of elements                        : 966
  • Stream size                              : 8.90 MiB (0%)
  • Title                                    : English-PGS
  • Language                                 : English
  • Default                                  : Yes
  • Forced                                   : No
  • Text #3
  • ID                                       : 5
  • Format                                   : PGS
  • Muxing mode                              : zlib
  • Codec ID                                 : S_HDMV/PGS
  • Codec ID/Info                            : Picture based subtitle format used on BDs/HD-DVDs
  • Duration                                 : 1 h 32 min
  • Bit rate                                 : 12.9 kb/s
  • Count of elements                        : 1070
  • Stream size                              : 8.61 MiB (0%)
  • Title                                    : French-PGS
  • Language                                 : French
  • Default                                  : No
  • Forced                                   : No
  • Text #4
  • ID                                       : 6
  • Format                                   : PGS
  • Muxing mode                              : zlib
  • Codec ID                                 : S_HDMV/PGS
  • Codec ID/Info                            : Picture based subtitle format used on BDs/HD-DVDs
  • Duration                                 : 1 h 33 min
  • Bit rate                                 : 15.0 kb/s
  • Count of elements                        : 984
  • Stream size                              : 9.96 MiB (0%)
  • Title                                    : German-PGS
  • Language                                 : German
  • Default                                  : No
  • Forced                                   : No
  • Text #5
  • ID                                       : 7
  • Format                                   : PGS
  • Muxing mode                              : zlib
  • Codec ID                                 : S_HDMV/PGS
  • Codec ID/Info                            : Picture based subtitle format used on BDs/HD-DVDs
  • Duration                                 : 31 min 54 s
  • Bit rate                                 : 907 b/s
  • Count of elements                        : 26
  • Stream size                              : 212 KiB (0%)
  • Title                                    : German-PGS
  • Language                                 : German
  • Default                                  : No
  • Forced                                   : No
  • Text #6
  • ID                                       : 8
  • Format                                   : PGS
  • Muxing mode                              : zlib
  • Codec ID                                 : S_HDMV/PGS
  • Codec ID/Info                            : Picture based subtitle format used on BDs/HD-DVDs
  • Duration                                 : 31 min 54 s
  • Bit rate                                 : 943 b/s
  • Count of elements                        : 26
  • Stream size                              : 221 KiB (0%)
  • Title                                    : French-PGS
  • Language                                 : French
  • Default                                  : No
  • Forced                                   : No
  • Menu
  • 00:00:00.000                             : :Chapter 1
  • 00:07:19.458                             : :Chapter 2
  • 00:14:30.375                             : :Chapter 3
  • 00:25:23.000                             : :Chapter 4
  • 00:30:14.250                             : :Chapter 5
  • 00:36:18.666                             : :Chapter 6
  • 00:48:47.166                             : :Chapter 7
  • 00:58:49.375                             : :Chapter 8
  • 01:09:51.458                             : :Chapter 9
  • 01:17:14.958                             : :Chapter 10
  • 01:26:29.500                             : :Chapter 11
  • 01:34:47.166                             : :Chapter 12

复制代码

第一滴血3/兰博3 Rambo.III.1988.REMASTERED.1080p.BluRay.x264.DTS-HD.MA.5.1-SWTYBLZ 11.68GB-2.png 第一滴血3/兰博3 Rambo.III.1988.REMASTERED.1080p.BluRay.x264.DTS-HD.MA.5.1-SWTYBLZ 11.68GB-3.png 第一滴血3/兰博3 Rambo.III.1988.REMASTERED.1080p.BluRay.x264.DTS-HD.MA.5.1-SWTYBLZ 11.68GB-4.png





回复

使用道具 举报

您需要登录后才可以回帖 登录 | 立即注册

本版积分规则

QQ|Archiver|手机版|小黑屋|中国高清网  |网站地图

GMT+8, 2018-11-21 21:35 , Processed in 0.149477 second(s), 41 queries .

Powered by HDchina X3.4

Copyright 2017-2018©HDchina.All right reserved

返回顶部 联系我们