你所知道的4K资源这里全部都有 4K电影 | 4K视频 | 4K壁纸 | 4K MV 怎么播放4K视频 | 4K电视演示片

教你玩转4K私人与家庭影院存储 NAS组装 | 黑群辉 家庭/影院Nas论坛

4K家庭影院信号源与视频设备知识 4K蓝光高清播放机 - 那个品牌好? 4K投影机论坛 | 4K电视机论坛

手把手教你搭建属于自己的家庭影院 4K家庭影院案例 | 家庭影院音频 4K家庭影院论坛

查看: 66|回复: 2

[剧情片] 守法公民/重案对决 Law.Abiding.Citizen.2009.REMASTERED.1080p.BluRay.x264.DTS-SWTYBLZ 12.61GB

[复制链接]

 成长值: 120

级别:资源管理组

UID
1
注册时间
2017-10-20
最后登录
2019-1-22
听众
0
收听
0
主题
73918
蓝光币
116407 枚
贡献
143727 点
发表于 2018-11-9 09:31:03 | 显示全部楼层 |阅读模式

遵法百姓/重案对决 Law.Abiding.Citizen.2009.REMASTERED.1080p.BluRay.x264.DTS-SWTYBLZ 12.61GB-1.jpg
◎译  名 遵法百姓 / 重案对决 / 知法玩法
◎片  名 遵法百姓 Law Abiding Citizen
◎年  代 2009
◎国  家 美国
◎类  别 剧情 / 惊悚 / 犯罪
◎语  言 英语
◎上映日期 2009-10-16
◎IMDb评分  7.4/10 from 244,592 users
◎IMDb链接  http://www.imdb.com/title/tt1197624/
◎豆瓣评分 7.9/10 from 69857 users
◎豆瓣链接 https://movie.douban.com/subject/3009161/
◎片  长 108 分钟 / 118 分钟(director's cut)
◎导  演 F·加里·格雷
◎主  演 杰米·福克斯
      杰拉德·巴特勒
      科尔姆·米尼
      布鲁斯·麦克吉尔
      莱丝莉·比伯
      维奥拉·戴维斯

◎简  介 

  克莱德·谢尔顿(格莱德·巴特勒 Gerard Butler 饰)是居住在费城某小镇的一位研发职员,他有着美丽的妻子和心爱的女儿,生活幸运完竣。但这一切都被突如其来的灾难所摧毁。某晚,两个大盗闯入他的家中,妻子和女儿都遭到摧残。但是虽然证据确实,但由于司法法式的陈腐和尼克·瑞斯(杰米·福克斯 Jamie Foxx 饰)助理履行官的出错,终极让首犯克拉伦斯·多比(克里斯蒂安·斯多特 Christian Stolte 饰)因证据不敷只获得10年徒刑。
  本以为一切归于寂静,但10年后昔时未了的风浪复兴。怀着庞大冤仇的克莱德起头筹划展开报复,先是干掉了昔时的从犯阿米,接着他很快找到了邪恶无耻的多比,并对其停止残暴的熬煎与虐杀。克莱德的冤仇获得庞大的宣泄,可是他的复仇还未就此停止。他所针对的不但是那两个大盗,而是全部腐败出错的司法系统……


  1. Video
  2. ID                                       : 1
  3. Format                                   : AVC
  4. Format/Info                              : Advanced Video Codec
  5. Format profile                           : [url=/cdn-cgi/l/email-protection][email protected][/url]
  6. Format settings                          : CABAC / 5 Ref Frames
  7. Format settings, CABAC                   : Yes
  8. Format settings, ReFrames                : 5 frames
  9. Codec ID                                 : V_MPEG4/ISO/AVC
  10. Duration                                 : 1 h 49 min
  11. Bit rate                                 : 15.0 Mb/s
  12. Width                                    : 1 920 pixels
  13. Height                                   : 800 pixels
  14. Display aspect ratio                     : 2.40:1
  15. Frame rate mode                          : Constant
  16. Frame rate                               : 23.976 (24000/1001) FPS
  17. Color space                              : YUV
  18. Chroma subsampling                       : 4:2:0
  19. Bit depth                                : 8 bits
  20. Scan type                                : Progressive
  21. Bits/(Pixel*Frame)                       : 0.408
  22. Stream size                              : 11.5 GiB (91%)
  23. Title                                    : Law.Abiding.Citizen.2009.REMASTERED.1080p.BluRay.x264.DTS-SWTYBLZ
  24. Writing library                          : x264 core 157 r2935 545de2f
  25. Encoding settings                        : cabac=1 / ref=5 / deblock=1:-1:-1 / analyse=0x3:0x133 / me=umh / subme=10 / psy=1 / psy_rd=1.00:0.15 / mixed_ref=1 / me_range=48 / chroma_me=1 / trellis=2 / 8x8dct=1 / cqm=0 / deadzone=21,11 / fast_pskip=1 / chroma_qp_offset=-3 / threads=25 / lookahead_threads=4 / sliced_threads=0 / nr=0 / decimate=0 / interlaced=0 / bluray_compat=0 / constrained_intra=0 / bframes=8 / b_pyramid=2 / b_adapt=2 / b_bias=0 / direct=3 / weightb=1 / open_gop=0 / weightp=2 / keyint=250 / keyint_min=23 / scenecut=40 / intra_refresh=0 / rc_lookahead=60 / rc=crf / mbtree=1 / crf=15.0 / qcomp=0.60 / qpmin=0 / qpmax=69 / qpstep=4 / ip_ratio=1.40 / aq=1:1.00
  26. Language                                 : English
  27. Default                                  : Yes
  28. Forced                                   : No

  29. Audio
  30. ID                                       : 2
  31. Format                                   : DTS
  32. Format/Info                              : Digital Theater Systems
  33. Codec ID                                 : A_DTS
  34. Duration                                 : 1 h 49 min
  35. Bit rate mode                            : Constant
  36. Bit rate                                 : 1 509 kb/s
  37. Channel(s)                               : 6 channels
  38. Channel layout                           : C L R Ls Rs LFE
  39. Sampling rate                            : 48.0 kHz
  40. Frame rate                               : 93.750 FPS (512 SPF)
  41. Bit depth                                : 24 bits
  42. Compression mode                         : Lossy
  43. Stream size                              : 1.15 GiB (9%)
  44. Title                                    : Law.Abiding.Citizen.2009.REMASTERED.1080p.BluRay.x264.DTS-SWTYBLZ
  45. Language                                 : English
  46. Default                                  : Yes
  47. Forced                                   : No

  48. Text #1
  49. ID                                       : 3
  50. Format                                   : UTF-8
  51. Codec ID                                 : S_TEXT/UTF8
  52. Codec ID/Info                            : UTF-8 Plain Text
  53. Duration                                 : 1 h 37 min
  54. Bit rate                                 : 65 b/s
  55. Count of elements                        : 1287
  56. Stream size                              : 46.9 KiB (0%)
  57. Language                                 : English
  58. Default                                  : Yes
  59. Forced                                   : No

  60. Text #2
  61. ID                                       : 4
  62. Format                                   : UTF-8
  63. Codec ID                                 : S_TEXT/UTF8
  64. Codec ID/Info                            : UTF-8 Plain Text
  65. Duration                                 : 1 h 44 min
  66. Bit rate                                 : 63 b/s
  67. Count of elements                        : 1294
  68. Stream size                              : 48.2 KiB (0%)
  69. Title                                    : SDH
  70. Language                                 : English
  71. Default                                  : No
  72. Forced                                   : No

  73. Menu
  74. 00:00:00.000                             : :Chapter 1
  75. 00:05:58.149                             : :Chapter 2
  76. 00:12:14.066                             : :Chapter 3
  77. 00:18:41.870                             : :Chapter 4
  78. 00:26:56.448                             : :Chapter 5
  79. 00:32:38.081                             : :Chapter 6
  80. 00:40:16.038                             : :Chapter 7
  81. 00:44:11.649                             : :Chapter 8
  82. 00:47:28.262                             : :Chapter 9
  83. 00:58:09.319                             : :Chapter 10
  84. 01:06:15.554                             : :Chapter 11
  85. 01:11:13.185                             : :Chapter 12
  86. 01:16:45.767                             : :Chapter 13
  87. 01:24:12.797                             : :Chapter 14
  88. 01:35:39.817                             : :Chapter 15
  89. 01:40:39.700                             : :Chapter 16
复制代码

复制代码

遵法百姓/重案对决 Law.Abiding.Citizen.2009.REMASTERED.1080p.BluRay.x264.DTS-SWTYBLZ 12.61GB-2.png 遵法百姓/重案对决 Law.Abiding.Citizen.2009.REMASTERED.1080p.BluRay.x264.DTS-SWTYBLZ 12.61GB-3.png 遵法百姓/重案对决 Law.Abiding.Citizen.2009.REMASTERED.1080p.BluRay.x264.DTS-SWTYBLZ 12.61GB-4.png





回复

使用道具 举报

级别:普通观众 Lv.2

UID
12748
注册时间
2018-12-23
最后登录
2019-1-20
听众
0
收听
0
主题
0
蓝光币
1 枚
贡献
0 点
发表于 2019-1-6 22:13:28 | 显示全部楼层

楼主,我太崇拜你了!我想我是一天也不能离开中国高清电影网
回复

使用道具 举报

级别:普通观众 Lv.2

UID
12465
注册时间
2018-12-20
最后登录
2019-1-21
听众
0
收听
0
主题
0
蓝光币
9 枚
贡献
0 点
发表于 2019-1-9 21:30:31 | 显示全部楼层
楼主发贴辛苦了,谢谢楼主分享!我觉得中国高清电影网是注册对了!
回复

使用道具 举报

懒得打字嘛,点击右侧快捷回复 【右侧内容,后台自定义】
您需要登录后才可以回帖 登录 | 立即注册

本版积分规则

QQ|Archiver|手机版|小黑屋|中国高清网 |网站地图

GMT+8, 2019-1-22 08:23 , Processed in 0.161257 second(s), 40 queries .

Powered by HDchina X3.4

Copyright 2017-2018©HDchina.All right reserved

返回顶部 联系我们