你所知道的4K资源这里全部都有 4K电影 | 4K视频 | 4K壁纸 | 4K MV 怎么播放4K视频 | 4K电视演示片

教你玩转4K私人与家庭影院存储 NAS组装 | 黑群辉 家庭/影院Nas论坛

4K家庭影院信号源与视频设备知识 4K蓝光高清播放机 - 那个品牌好? 4K投影机论坛 | 4K电视机论坛

手把手教你搭建属于自己的家庭影院 4K家庭影院案例 | 家庭影院音频 4K家庭影院论坛

查看: 123|回复: 1

[剧情片] 守法公民/重案对决 Law.Abiding.Citizen.2009.REMASTERED.1080p.BluRay.x264.TrueHD.7.1.Atmos-SWTYBLZ 15.24GB

[复制链接]

 成长值: 1040

级别:资源管理组

注册时间
2017-10-20
最后登录
2019-4-23
听众
0
收听
0
主题
76979
蓝光币
8521 枚
贡献
1287 点
发表于 2018-11-9 09:30:13 | 显示全部楼层 |阅读模式

遵法百姓/重案对决 Law.Abiding.Citizen.2009.REMASTERED.1080p.BluRay.x264.TrueHD.7.1.Atmos-SWTYBLZ 15.24GB-1.jpg
◎译  名 遵法百姓 / 重案对决 / 知法玩法
◎片  名 遵法百姓 Law Abiding Citizen
◎年  代 2009
◎国  家 美国
◎类  别 剧情 / 惊悚 / 犯罪
◎语  言 英语
◎上映日期 2009-10-16
◎IMDb评分  7.4/10 from 244,592 users
◎IMDb链接  http://www.imdb.com/title/tt1197624/
◎豆瓣评分 7.9/10 from 69857 users
◎豆瓣链接 https://movie.douban.com/subject/3009161/
◎片  长 108 分钟 / 118 分钟(director's cut)
◎导  演 F·加里·格雷
◎主  演 杰米·福克斯
      杰拉德·巴特勒
      科尔姆·米尼
      布鲁斯·麦克吉尔
      莱丝莉·比伯
      维奥拉·戴维斯

◎简  介 

  克莱德·谢尔顿(格莱德·巴特勒 Gerard Butler 饰)是居住在费城某小镇的一位研发职员,他有着美丽的妻子和心爱的女儿,生活幸运完竣。但这一切都被突如其来的灾难所摧毁。某晚,两个大盗闯入他的家中,妻子和女儿都遭到摧残。但是虽然证据确实,但由于司法法式的陈腐和尼克·瑞斯(杰米·福克斯 Jamie Foxx 饰)助理履行官的出错,终极让首犯克拉伦斯·多比(克里斯蒂安·斯多特 Christian Stolte 饰)因证据不敷只获得10年徒刑。
  本以为一切归于寂静,但10年后昔时未了的风浪复兴。怀着庞大冤仇的克莱德起头筹划展开报复,先是干掉了昔时的从犯阿米,接着他很快找到了邪恶无耻的多比,并对其停止残暴的熬煎与虐杀。克莱德的冤仇获得庞大的宣泄,可是他的复仇还未就此停止。他所针对的不但是那两个大盗,而是全部腐败出错的司法系统……


  1. Video
  2. ID                                       : 1
  3. Format                                   : AVC
  4. Format/Info                              : Advanced Video Codec
  5. Format profile                           : [url=/cdn-cgi/l/email-protection][email protected][/url]
  6. Format settings                          : CABAC / 5 Ref Frames
  7. Format settings, CABAC                   : Yes
  8. Format settings, ReFrames                : 5 frames
  9. Codec ID                                 : V_MPEG4/ISO/AVC
  10. Duration                                 : 1 h 49 min
  11. Bit rate                                 : 15.0 Mb/s
  12. Width                                    : 1 920 pixels
  13. Height                                   : 800 pixels
  14. Display aspect ratio                     : 2.40:1
  15. Frame rate mode                          : Constant
  16. Frame rate                               : 23.976 (24000/1001) FPS
  17. Color space                              : YUV
  18. Chroma subsampling                       : 4:2:0
  19. Bit depth                                : 8 bits
  20. Scan type                                : Progressive
  21. Bits/(Pixel*Frame)                       : 0.408
  22. Stream size                              : 11.5 GiB (75%)
  23. Title                                    : Law.Abiding.Citizen.2009.REMASTERED.1080p.BluRay.x264.TrueHD.7.1.Atmos-SWTYBLZ
  24. Writing library                          : x264 core 157 r2935 545de2f
  25. Encoding settings                        : cabac=1 / ref=5 / deblock=1:-1:-1 / analyse=0x3:0x133 / me=umh / subme=10 / psy=1 / psy_rd=1.00:0.15 / mixed_ref=1 / me_range=48 / chroma_me=1 / trellis=2 / 8x8dct=1 / cqm=0 / deadzone=21,11 / fast_pskip=1 / chroma_qp_offset=-3 / threads=25 / lookahead_threads=4 / sliced_threads=0 / nr=0 / decimate=0 / interlaced=0 / bluray_compat=0 / constrained_intra=0 / bframes=8 / b_pyramid=2 / b_adapt=2 / b_bias=0 / direct=3 / weightb=1 / open_gop=0 / weightp=2 / keyint=250 / keyint_min=23 / scenecut=40 / intra_refresh=0 / rc_lookahead=60 / rc=crf / mbtree=1 / crf=15.0 / qcomp=0.60 / qpmin=0 / qpmax=69 / qpstep=4 / ip_ratio=1.40 / aq=1:1.00
  26. Default                                  : Yes
  27. Forced                                   : No

  28. Audio #1
  29. ID                                       : 2
  30. Format                                   : MLP FBA 16-ch
  31. Format/Info                              : Meridian Lossless Packing FBA with 16-channel presentation
  32. Commercial name                          : Dolby TrueHD with Dolby Atmos
  33. Codec ID                                 : A_TRUEHD
  34. Duration                                 : 1 h 49 min
  35. Bit rate mode                            : Variable
  36. Bit rate                                 : 4 186 kb/s
  37. Maximum bit rate                         : 7 701 kb/s
  38. Channel(s)                               : 8 channels
  39. Channel layout                           : L R C LFE Ls Rs Lb Rb
  40. Sampling rate                            : 48.0 kHz
  41. Frame rate                               : 1 200.000 FPS (40 SPF)
  42. Compression mode                         : Lossless
  43. Stream size                              : 3.20 GiB (21%)
  44. Title                                    : Law.Abiding.Citizen.2009.REMASTERED.1080p.BluRay.x264.TrueHD.7.1.Atmos-SWTYBLZ
  45. Language                                 : English
  46. Default                                  : Yes
  47. Forced                                   : No
  48. Number of dynamic objects                : 15
  49. Bed channel count                        : 1 channel
  50. Bed channel configuration                : LFE

  51. Audio #2
  52. ID                                       : 3
  53. Format                                   : AC-3
  54. Format/Info                              : Audio Coding 3
  55. Commercial name                          : Dolby Digital
  56. Codec ID                                 : A_AC3
  57. Duration                                 : 1 h 49 min
  58. Bit rate mode                            : Constant
  59. Bit rate                                 : 640 kb/s
  60. Channel(s)                               : 6 channels
  61. Channel layout                           : L R C LFE Ls Rs
  62. Sampling rate                            : 48.0 kHz
  63. Frame rate                               : 31.250 FPS (1536 SPF)
  64. Bit depth                                : 16 bits
  65. Compression mode                         : Lossy
  66. Stream size                              : 500 MiB (3%)
  67. Title                                    : Law.Abiding.Citizen.2009.REMASTERED.1080p.BluRay.x264.TrueHD.7.1.Atmos-SWTYBLZ
  68. Language                                 : English
  69. Service kind                             : Complete Main
  70. Default                                  : No
  71. Forced                                   : No

  72. Text #1
  73. ID                                       : 4
  74. Format                                   : UTF-8
  75. Codec ID                                 : S_TEXT/UTF8
  76. Codec ID/Info                            : UTF-8 Plain Text
  77. Duration                                 : 1 h 37 min
  78. Bit rate                                 : 65 b/s
  79. Count of elements                        : 1287
  80. Stream size                              : 46.9 KiB (0%)
  81. Title                                    : English-SRT
  82. Language                                 : English
  83. Default                                  : Yes
  84. Forced                                   : No

  85. Text #2
  86. ID                                       : 5
  87. Format                                   : UTF-8
  88. Codec ID                                 : S_TEXT/UTF8
  89. Codec ID/Info                            : UTF-8 Plain Text
  90. Duration                                 : 1 h 44 min
  91. Bit rate                                 : 63 b/s
  92. Count of elements                        : 1294
  93. Stream size                              : 48.2 KiB (0%)
  94. Title                                    : English-SDH-SRT
  95. Language                                 : English
  96. Default                                  : No
  97. Forced                                   : No

  98. Text #3
  99. ID                                       : 6
  100. Format                                   : PGS
  101. Muxing mode                              : zlib
  102. Codec ID                                 : S_HDMV/PGS
  103. Codec ID/Info                            : Picture based subtitle format used on BDs/HD-DVDs
  104. Duration                                 : 1 h 37 min
  105. Bit rate                                 : 39.8 kb/s
  106. Count of elements                        : 2574
  107. Stream size                              : 27.9 MiB (0%)
  108. Title                                    : English-PGS
  109. Language                                 : English
  110. Default                                  : No
  111. Forced                                   : No

  112. Text #4
  113. ID                                       : 7
  114. Format                                   : PGS
  115. Muxing mode                              : zlib
  116. Codec ID                                 : S_HDMV/PGS
  117. Codec ID/Info                            : Picture based subtitle format used on BDs/HD-DVDs
  118. Duration                                 : 1 h 45 min
  119. Bit rate                                 : 40.2 kb/s
  120. Count of elements                        : 2826
  121. Stream size                              : 30.3 MiB (0%)
  122. Title                                    : English-SDH-PGS
  123. Language                                 : English
  124. Default                                  : No
  125. Forced                                   : No

  126. Text #5
  127. ID                                       : 8
  128. Format                                   : PGS
  129. Muxing mode                              : zlib
  130. Codec ID                                 : S_HDMV/PGS
  131. Codec ID/Info                            : Picture based subtitle format used on BDs/HD-DVDs
  132. Duration                                 : 1 h 47 min
  133. Bit rate                                 : 35.2 kb/s
  134. Count of elements                        : 2502
  135. Stream size                              : 27.1 MiB (0%)
  136. Title                                    : Spanish-PGS
  137. Language                                 : Spanish
  138. Default                                  : No
  139. Forced                                   : No

  140. Menu
  141. 00:00:00.000                             : :Chapter 1
  142. 00:05:58.149                             : :Chapter 2
  143. 00:12:14.066                             : :Chapter 3
  144. 00:18:41.870                             : :Chapter 4
  145. 00:26:56.448                             : :Chapter 5
  146. 00:32:38.081                             : :Chapter 6
  147. 00:40:16.038                             : :Chapter 7
  148. 00:44:11.649                             : :Chapter 8
  149. 00:47:28.262                             : :Chapter 9
  150. 00:58:09.319                             : :Chapter 10
  151. 01:06:15.554                             : :Chapter 11
  152. 01:11:13.185                             : :Chapter 12
  153. 01:16:45.767                             : :Chapter 13
  154. 01:24:12.797                             : :Chapter 14
  155. 01:35:39.817                             : :Chapter 15
  156. 01:40:39.700                             : :Chapter 16
复制代码

复制代码

遵法百姓/重案对决 Law.Abiding.Citizen.2009.REMASTERED.1080p.BluRay.x264.TrueHD.7.1.Atmos-SWTYBLZ 15.24GB-2.png 遵法百姓/重案对决 Law.Abiding.Citizen.2009.REMASTERED.1080p.BluRay.x264.TrueHD.7.1.Atmos-SWTYBLZ 15.24GB-3.png 遵法百姓/重案对决 Law.Abiding.Citizen.2009.REMASTERED.1080p.BluRay.x264.TrueHD.7.1.Atmos-SWTYBLZ 15.24GB-4.png





回复

使用道具 举报

级别:群众演员 Lv.3

注册时间
2018-11-12
最后登录
2019-3-12
听众
2
收听
0
主题
0
蓝光币
2 枚
贡献
0 点
发表于 2018-11-13 08:45:32 | 显示全部楼层
谢谢分享
回复

使用道具 举报

懒得打字嘛,点击右侧快捷回复 【右侧内容,后台自定义】
您需要登录后才可以回帖 登录 | 立即注册

本版积分规则

QQ|Archiver|手机版|小黑屋|中国高清网  |网站地图

GMT+8, 2019-4-23 17:56 , Processed in 0.147442 second(s), 41 queries .

Powered by HDchina X3.4

Copyright 2017-2018©HDchina.All right reserved

返回顶部 联系我们