你所知道的4K资源这里全部都有 4K电影 | 4K视频 | 4K壁纸 | 4K MV 怎么播放4K视频 | 4K电视演示片

教你玩转4K私人与家庭影院存储 NAS组装 | 黑群辉 家庭/影院Nas论坛

4K家庭影院信号源与视频设备知识 4K蓝光高清播放机 - 那个品牌好? 4K投影机论坛 | 4K电视机论坛

手把手教你搭建属于自己的家庭影院 4K家庭影院案例 | 家庭影院音频 4K家庭影院论坛

查看: 69|回复: 0

[剧情片] 埃迪森/惊爆头条内幕 Edison.2005.1080p.BluRay.x264-iKA 7.95GB

[复制链接]

 成长值: 120

级别:资源管理组

UID
1
注册时间
2017-10-20
最后登录
2019-1-22
听众
0
收听
0
主题
73918
蓝光币
116407 枚
贡献
143727 点
发表于 2018-11-8 22:19:30 | 显示全部楼层 |阅读模式

埃迪森/惊爆头条内幕 Edison.2005.1080p.BluRay.x264-iKA 7.95GB-1.jpg
◎译  名 埃迪森 / 惊爆头条内幕(台) / 黑色先遣队
◎片  名 埃迪森 Edison
◎年  代 2005
◎国  家 美国
◎类  别 剧情 / 惊悚 / 犯罪
◎语  言 英语
◎上映日期 2005-11-11
◎IMDb评分  5.3/10 from 14,049 users
◎IMDb链接  http://www.imdb.com/title/tt0389957/
◎豆瓣评分 5.5/10 from 984 users
◎豆瓣链接 https://movie.douban.com/subject/1437015/
◎片  长 99 分钟 / Canada: 97 分钟(Toronto International Film Festival) / Argentina: 92 分钟
◎导  演 大卫·J·伯克
◎主  演 凯文·史派西
      摩根·弗里曼
      LL Cool J
      贾斯汀·汀布莱克
      迪伦·麦克德莫特

◎简  介 

  故事发生在一个虚拟的城市——埃迪森市中,在那边,执政者和法律者相互勾结,黑恶势力层见叠出,金钱和权利的买卖天天都在发生,这些黑暗和败北如同一只庞大而厚重的手掌,控制了全部城市和生活在其中的人们。波拉克(贾斯汀·丁伯莱克 Justin Timberlake 饰)是一位尚且保存了赤子之心的记者,精明的他很快就发觉到了发生在这个城市中的各种罪行,心胸远大理想的他决议将它们逐一揭发。
  波拉克的行为很快就惹恼了他正在观察的工具们,他们决议灭掉这个不知好歹的小子。在危险当中,波拉克只得乞助于自己的老板艾斯佛(摩根·弗里曼 Morgan Freeman 饰)——一个良知尚存的老记者,在艾斯佛和其好友华勒斯检察官(凯文·史派西 Kevin Spacey 饰)的帮助下,波拉克正在一步一步的接近真相。


  1. Video
  2. ID                                       : 1
  3. Format                                   : AVC
  4. Format/Info                              : Advanced Video Codec
  5. Format profile                           : [url=/cdn-cgi/l/email-protection][email protected][/url]
  6. Format settings, CABAC                   : Yes
  7. Format settings, ReFrames                : 5 frames
  8. Codec ID                                 : V_MPEG4/ISO/AVC
  9. Duration                                 : 1h 39mn
  10. Bit rate                                 : 10.8 Mbps
  11. Width                                    : 1 920 pixels
  12. Height                                   : 800 pixels
  13. Display aspect ratio                     : 2.40:1
  14. Frame rate mode                          : Constant
  15. Frame rate                               : 24.000 fps
  16. Color space                              : YUV
  17. Chroma subsampling                       : 4:2:0
  18. Bit depth                                : 8 bits
  19. Scan type                                : Progressive
  20. Bits/(Pixel*Frame)                       : 0.294
  21. Stream size                              : 7.35 GiB (92%)
  22. Writing library                          : x264 core 65 r1041M 12724e6
  23. Encoding settings                        : cabac=1 / ref=5 / deblock=1:0:0 / analyse=0x3:0x133 / me=umh / subme=7 / psy_rd=1.0:0.0 / mixed_ref=1 / me_range=16 / chroma_me=1 / trellis=1 / 8x8dct=1 / cqm=2 / deadzone=21,11 / chroma_qp_offset=-2 / threads=3 / nr=0 / decimate=1 / mbaff=0 / bframes=3 / b_pyramid=1 / b_adapt=1 / b_bias=0 / direct=1 / wpredb=1 / keyint=250 / keyint_min=25 / scenecut=40(pre) / rc=2pass / bitrate=10847 / ratetol=1.0 / qcomp=0.60 / qpmin=10 / qpmax=51 / qpstep=4 / cplxblur=20.0 / qblur=0.5 / ip_ratio=1.40 / pb_ratio=1.30 / aq=1:1.00
  24. Language                                 : English
  25. Default                                  : Yes
  26. Forced                                   : No

  27. Audio
  28. ID                                       : 2
  29. Format                                   : AC-3
  30. Format/Info                              : Audio Coding 3
  31. Mode extension                           : CM (complete main)
  32. Format settings, Endianness              : Big
  33. Codec ID                                 : A_AC3
  34. Duration                                 : 1h 39mn
  35. Bit rate mode                            : Constant
  36. Bit rate                                 : 640 Kbps
  37. Channel(s)                               : 6 channels
  38. Channel positions                        : Front: L C R, Side: L R, LFE
  39. Sampling rate                            : 48.0 KHz
  40. Frame rate                               : 31.250 fps (1536 spf)
  41. Compression mode                         : Lossy
  42. Stream size                              : 454 MiB (6%)
  43. Language                                 : English
  44. Default                                  : Yes
  45. Forced                                   : No

  46. Text
  47. ID                                       : 3
  48. Format                                   : UTF-8
  49. Codec ID                                 : S_TEXT/UTF8
  50. Codec ID/Info                            : UTF-8 Plain Text
  51. Language                                 : English
  52. Default                                  : Yes
  53. Forced                                   : No
复制代码

复制代码

埃迪森/惊爆头条内幕 Edison.2005.1080p.BluRay.x264-iKA 7.95GB-2.png 埃迪森/惊爆头条内幕 Edison.2005.1080p.BluRay.x264-iKA 7.95GB-3.png 埃迪森/惊爆头条内幕 Edison.2005.1080p.BluRay.x264-iKA 7.95GB-4.png 埃迪森/惊爆头条内幕 Edison.2005.1080p.BluRay.x264-iKA 7.95GB-5.png 埃迪森/惊爆头条内幕 Edison.2005.1080p.BluRay.x264-iKA 7.95GB-6.png 埃迪森/惊爆头条内幕 Edison.2005.1080p.BluRay.x264-iKA 7.95GB-7.png





回复

使用道具 举报

懒得打字嘛,点击右侧快捷回复 【右侧内容,后台自定义】
您需要登录后才可以回帖 登录 | 立即注册

本版积分规则

QQ|Archiver|手机版|小黑屋|中国高清网 |网站地图

GMT+8, 2019-1-22 08:18 , Processed in 0.177109 second(s), 41 queries .

Powered by HDchina X3.4

Copyright 2017-2018©HDchina.All right reserved

返回顶部 联系我们