你所知道的4K资源这里全部都有 4K电影 | 4K视频 | 4K壁纸 | 4K MV 怎么播放4K视频 | 4K电视演示片

教你玩转4K私人与家庭影院存储 NAS组装 | 黑群辉 家庭/影院Nas论坛

4K家庭影院信号源与视频设备知识 4K蓝光高清播放机 - 那个品牌好? 4K投影机论坛 | 4K电视机论坛

手把手教你搭建属于自己的家庭影院 4K家庭影院案例 | 家庭影院音频 4K家庭影院论坛

查看: 40|回复: 1

[惊悚片] 魔界妖姬/杀出个黎明3 From.Dusk.Till.Dawn.3.The.Hangmans.Daughter.1999.1080p.BluRay.x264-UNTOUCHABLES 6.56GB

[复制链接]

级别:资源管理组

UID
1
注册时间
2017-10-20
最后登录
2018-11-21
听众
0
收听
0
主题
72220
蓝光币
99015 枚
贡献
142028 点
发表于 2018-11-8 22:18:40 | 显示全部楼层 |阅读模式

魔界妖姬/杀出个拂晓3 From.Dusk.Till.Dawn.3.The.Hangmans.Daughter.1999.1080p.BluRay.x264-UNTOUCHABLES 6.56GB-1.jpg
◎译  名 魔界妖姬 / 杀出个拂晓3 / 恶夜追杀令3 / 从傍晚到拂晓3
◎片  名 魔界妖姬 From Dusk Till Dawn 3: The Hangman's Daughter
◎年  代 1999
◎国  家 美国
◎类  别 惊悚 / 可骇 / 西部
◎语  言 英语
◎上映日期 1999-10-31
◎IMDb评分  4.8/10 from 10,033 users
◎IMDb链接  http://www.imdb.com/title/tt0120695/
◎豆瓣评分 6.1/10 from 1271 users
◎豆瓣链接 https://movie.douban.com/subject/1304493/
◎片  长 94 分钟
◎导  演 P.J. Pesce
◎主  演 马克·莱昂纳蒂
      迈克尔·帕克斯
      吕蓓卡·盖哈特

◎简  介 

  故事发生在二十世纪初的墨西哥,四周为非作恶的犯警之徒强尼(马克·莱昂纳蒂 Marco Leonardi 饰)带着女友艾丝梅洛达(阿若·希利 Ara Celi 饰)踏上流亡的旅途,在两人死后牢牢追索的,是艾丝梅洛达身为差人的父亲刽子手(特穆拉·莫里森 uera Morrison 饰)。一行人前后来到了位于茫茫荒凉当中的魔鬼酒店,在那边,一场大战行将拉开序幕。
  但是,令众人没有想到的是,打响第一枪的却并非强尼或是刽子手,而是一本性感妖艳的美男。本来,这位美男的实在身份是蛰伏了千年的吸血鬼,再也没法忍受饥渴的她要在此处大开杀戒。艾丝梅洛达居然自动挑选成为吸血鬼的同党,只由于她的体内流淌着一般吸血鬼的血液。

  • Video
  • ID                                       : 1
  • Format                                   : AVC
  • Format/Info                              : Advanced Video Codec
  • Format profile                           : [email protected]
  • Format settings, CABAC                   : Yes
  • Format settings, ReFrames                : 4 frames
  • Codec ID                                 : V_MPEG4/ISO/AVC
  • Duration                                 : 1h 33mn
  • Bit rate                                 : 8 576 Kbps
  • Width                                    : 1 920 pixels
  • Height                                   : 1 032 pixels
  • Display aspect ratio                     : 1.85:1
  • Frame rate mode                          : Constant
  • Frame rate                               : 23.976 fps
  • Color space                              : YUV
  • Chroma subsampling                       : 4:2:0
  • Bit depth                                : 8 bits
  • Scan type                                : Progressive
  • Bits/(Pixel*Frame)                       : 0.181
  • Stream size                              : 5.44 GiB (83%)
  • Writing library                          : x264 core 116 r2074 2641b9e
  • Encoding settings                        : cabac=1 / ref=4 / deblock=1:-1:-1 / analyse=0x3:0x112 / me=umh / subme=7 / psy=1 / psy_rd=1.00:0.00 / mixed_ref=1 / me_range=16 / chroma_me=1 / trellis=1 / 8x8dct=1 / cqm=0 / deadzone=21,11 / fast_pskip=1 / chroma_qp_offset=-2 / threads=12 / sliced_threads=0 / nr=0 / decimate=1 / interlaced=0 / bluray_compat=0 / constrained_intra=0 / bframes=3 / b_pyramid=2 / b_adapt=2 / b_bias=0 / direct=1 / weightb=1 / open_gop=0 / weightp=2 / keyint=250 / keyint_min=23 / scenecut=40 / intra_refresh=0 / rc_lookahead=40 / rc=2pass / mbtree=1 / bitrate=8576 / ratetol=1.0 / qcomp=0.60 / qpmin=0 / qpmax=69 / qpstep=4 / cplxblur=20.0 / qblur=0.5 / ip_ratio=1.40 / aq=1:1.00
  • Language                                 : English
  • Default                                  : Yes
  • Forced                                   : No
  • Audio
  • ID                                       : 2
  • Format                                   : DTS
  • Format/Info                              : Digital Theater Systems
  • Mode                                     : 16
  • Format settings, Endianness              : Big
  • Codec ID                                 : A_DTS
  • Duration                                 : 1h 33mn
  • Bit rate mode                            : Constant
  • Bit rate                                 : 1 509 Kbps
  • Channel(s)                               : 6 channels
  • Channel positions                        : Front: L C R, Side: L R, LFE
  • Sampling rate                            : 48.0 KHz
  • Bit depth                                : 16 bits
  • Compression mode                         : Lossy
  • Stream size                              : 1 013 MiB (15%)
  • Default                                  : Yes
  • Forced                                   : No

复制代码

魔界妖姬/杀出个拂晓3 From.Dusk.Till.Dawn.3.The.Hangmans.Daughter.1999.1080p.BluRay.x264-UNTOUCHABLES 6.56GB-2.png 魔界妖姬/杀出个拂晓3 From.Dusk.Till.Dawn.3.The.Hangmans.Daughter.1999.1080p.BluRay.x264-UNTOUCHABLES 6.56GB-3.png 魔界妖姬/杀出个拂晓3 From.Dusk.Till.Dawn.3.The.Hangmans.Daughter.1999.1080p.BluRay.x264-UNTOUCHABLES 6.56GB-4.png 魔界妖姬/杀出个拂晓3 From.Dusk.Till.Dawn.3.The.Hangmans.Daughter.1999.1080p.BluRay.x264-UNTOUCHABLES 6.56GB-5.png 魔界妖姬/杀出个拂晓3 From.Dusk.Till.Dawn.3.The.Hangmans.Daughter.1999.1080p.BluRay.x264-UNTOUCHABLES 6.56GB-6.png 魔界妖姬/杀出个拂晓3 From.Dusk.Till.Dawn.3.The.Hangmans.Daughter.1999.1080p.BluRay.x264-UNTOUCHABLES 6.56GB-7.png





回复

使用道具 举报

级别:初级观众 Lv.1

UID
10292
注册时间
2018-11-17
最后登录
2018-11-17
听众
0
收听
0
主题
0
蓝光币
5 枚
贡献
0 点
发表于 4 天前 | 显示全部楼层
多谢楼主分享
回复

使用道具 举报

您需要登录后才可以回帖 登录 | 立即注册

本版积分规则

QQ|Archiver|手机版|小黑屋|中国高清网  |网站地图

GMT+8, 2018-11-21 21:35 , Processed in 0.128681 second(s), 41 queries .

Powered by HDchina X3.4

Copyright 2017-2018©HDchina.All right reserved

返回顶部 联系我们