你所知道的4K资源这里全部都有 4K电影 | 4K视频 | 4K壁纸 | 4K MV 怎么播放4K视频 | 4K电视演示片

教你玩转4K私人与家庭影院存储 NAS组装 | 黑群辉 家庭/影院Nas论坛

4K家庭影院信号源与视频设备知识 4K蓝光高清播放机 - 那个品牌好? 4K投影机论坛 | 4K电视机论坛

手把手教你搭建属于自己的家庭影院 4K家庭影院案例 | 家庭影院音频 4K家庭影院论坛

查看: 175|回复: 5

[动作片] 夜鹰/反暴特勤组 Nighthawks.1981.1080p.BluRay.x264-SADPANDA 7.94GB

[复制链接]

 成长值: 1040

级别:资源管理组

注册时间
2017-10-20
最后登录
2019-4-23
听众
0
收听
0
主题
76979
蓝光币
8533 枚
贡献
1287 点
发表于 2018-11-8 22:17:43 | 显示全部楼层 |阅读模式

夜鹰/反暴特勤组 Nighthawks.1981.1080p.BluRay.x264-SADPANDA 7.94GB-1.jpg
◎译  名 夜鹰 / 反暴特勤组
◎片  名 夜鹰 Nighthawks
◎年  代 1981
◎国  家 美国
◎类  别 行动 / 惊悚 / 犯罪
◎语  言 法语 / 德语 / 英语
◎上映日期 1981-04-04
◎IMDb评分  6.4/10 from 14,511 users
◎IMDb链接  http://www.imdb.com/title/tt0082817/
◎豆瓣评分 6.4/10 from 133 users
◎豆瓣链接 https://movie.douban.com/subject/1293873/
◎片  长 99 分钟
◎导  演 布鲁斯·马尔穆斯 / 盖瑞·尼尔森
◎主  演 西尔维斯特·史泰龙
      比利·迪·威廉姆斯
      鲁特格尔·哈尔

◎简  介 

  Deke DaSilva (Sylvester Stallone饰)和Matthew Fox (Billy Dee Williams饰)是纽约市差人局的两个好同伴。Deke DaSilva很是喜好他所做的差野生作,屡次放弃升级机遇,当他和Matthew Fox被分拨到反恐精英队时,DaSilva对此非常不满,心胸芥蒂。此时,反恐精英的英国反恐专家得悉,一个污名昭著的可骇份子团伙已经潜入纽约,意图经过连环可骇攻击激发纽约市的骚乱。专家向反恐精英下达了赶尽扑灭的号令,亦引发DaSilva和Fox的反感。可是,随着炸弹声屡次在纽约市响起,他们起头重新熟悉了这伙可骇份子的凶残微风险,因而携手,对可骇份子一伙痛下杀手,经过一番血腥的厮杀,反恐精英击败了这伙可骇份子,纽约市又规复了昔日的安宁。


  1. Video
  2. ID                                       : 1
  3. Format                                   : AVC
  4. Format/Info                              : Advanced Video Codec
  5. Format profile                           : [url=/cdn-cgi/l/email-protection][email protected][/url]
  6. Format settings, CABAC                   : Yes
  7. Format settings, ReFrames                : 4 frames
  8. Codec ID                                 : V_MPEG4/ISO/AVC
  9. Duration                                 : 1h 39mn
  10. Bit rate                                 : 10.8 Mbps
  11. Width                                    : 1 920 pixels
  12. Height                                   : 1 040 pixels
  13. Display aspect ratio                     : 1.85:1
  14. Frame rate mode                          : Constant
  15. Frame rate                               : 23.976 (24000/1001) fps
  16. Color space                              : YUV
  17. Chroma subsampling                       : 4:2:0
  18. Bit depth                                : 8 bits
  19. Scan type                                : Progressive
  20. Bits/(Pixel*Frame)                       : 0.225
  21. Stream size                              : 7.45 GiB (94%)
  22. Writing library                          : x264 core 148 r2721 72d53ab
  23. Encoding settings                        : cabac=1 / ref=4 / deblock=1:-3:-3 / analyse=0x3:0x113 / me=umh / subme=8 / psy=1 / psy_rd=1.00:0.25 / mixed_ref=1 / me_range=24 / chroma_me=1 / trellis=1 / 8x8dct=1 / cqm=0 / deadzone=21,11 / fast_pskip=1 / chroma_qp_offset=-4 / threads=24 / lookahead_threads=4 / sliced_threads=0 / nr=0 / decimate=1 / interlaced=0 / bluray_compat=0 / constrained_intra=0 / bframes=3 / b_pyramid=2 / b_adapt=1 / b_bias=0 / direct=3 / weightb=1 / open_gop=0 / weightp=2 / keyint=240 / keyint_min=24 / scenecut=40 / intra_refresh=0 / rc_lookahead=50 / rc=2pass / mbtree=1 / bitrate=10753 / ratetol=1.0 / qcomp=0.60 / qpmin=0 / qpmax=69 / qpstep=4 / cplxblur=20.0 / qblur=0.5 / ip_ratio=1.40 / aq=1:0.75
  24. Default                                  : Yes
  25. Forced                                   : No

  26. Audio
  27. ID                                       : 2
  28. Format                                   : FLAC
  29. Format/Info                              : Free Lossless Audio Codec
  30. Codec ID                                 : A_FLAC
  31. Duration                                 : 1h 39mn
  32. Bit rate mode                            : Variable
  33. Bit rate                                 : 697 Kbps
  34. Channel(s)                               : 2 channels
  35. Channel positions                        : Front: L R
  36. Sampling rate                            : 48.0 KHz
  37. Frame rate                               : 11.719 fps (4096 spf)
  38. Bit depth                                : 24 bits
  39. Stream size                              : 495 MiB (6%)
  40. Writing library                          : libFLAC 1.2.1 (UTC 2007-09-17)
  41. Language                                 : English
  42. Default                                  : Yes
  43. Forced                                   : No

  44. Menu
  45. 00:00:00.000                             : en:00:00:00.000
  46. 00:07:37.123                             : en:00:07:37.123
  47. 00:16:51.219                             : en:00:16:51.219
  48. 00:23:49.094                             : en:00:23:49.094
  49. 00:30:37.627                             : en:00:30:37.627
  50. 00:37:46.139                             : en:00:37:46.139
  51. 00:46:18.526                             : en:00:46:18.526
  52. 00:54:40.819                             : en:00:54:40.819
  53. 01:01:56.129                             : en:01:01:56.129
  54. 01:09:45.723                             : en:01:09:45.723
  55. 01:20:42.963                             : en:01:20:42.963
  56. 01:29:09.344                             : en:01:29:09.344
复制代码

复制代码

夜鹰/反暴特勤组 Nighthawks.1981.1080p.BluRay.x264-SADPANDA 7.94GB-2.png 夜鹰/反暴特勤组 Nighthawks.1981.1080p.BluRay.x264-SADPANDA 7.94GB-3.png 夜鹰/反暴特勤组 Nighthawks.1981.1080p.BluRay.x264-SADPANDA 7.94GB-4.png 夜鹰/反暴特勤组 Nighthawks.1981.1080p.BluRay.x264-SADPANDA 7.94GB-5.png 夜鹰/反暴特勤组 Nighthawks.1981.1080p.BluRay.x264-SADPANDA 7.94GB-6.png 夜鹰/反暴特勤组 Nighthawks.1981.1080p.BluRay.x264-SADPANDA 7.94GB-7.png





回复

使用道具 举报

级别:荣升主角 Lv.5

注册时间
2018-9-3
最后登录
2019-4-22
听众
5
收听
0
主题
132
蓝光币
1023 枚
贡献
151 点
发表于 2018-11-8 22:36:41 | 显示全部楼层
谢谢楼主分享
回复

使用道具 举报

级别:初级观众 Lv.1

注册时间
2018-11-10
最后登录
2018-11-10
听众
1
收听
0
主题
0
蓝光币
2 枚
贡献
0 点
发表于 2018-11-10 20:51:48 | 显示全部楼层

谢谢楼主分享
回复

使用道具 举报

级别:初级观众 Lv.1

注册时间
2018-11-10
最后登录
2018-11-10
听众
1
收听
0
主题
0
蓝光币
2 枚
贡献
0 点
发表于 2018-11-10 20:52:36 | 显示全部楼层
典型的美国警匪片
回复

使用道具 举报

级别:专业龙套 Lv.4

注册时间
2018-11-13
最后登录
2019-1-27
听众
1
收听
0
主题
0
蓝光币
124 枚
贡献
0 点
发表于 2018-11-15 12:35:18 | 显示全部楼层

感谢楼主分享高清电影!
回复

使用道具 举报

级别:荣升主角 Lv.5

注册时间
2018-12-18
最后登录
2019-2-18
听众
1
收听
0
主题
0
蓝光币
13 枚
贡献
0 点
发表于 2018-12-18 16:44:36 | 显示全部楼层

楼主太厉害了!楼主,电影应该很好看我觉得中国高清电影网真是个好地方!
回复

使用道具 举报

懒得打字嘛,点击右侧快捷回复 【右侧内容,后台自定义】
您需要登录后才可以回帖 登录 | 立即注册

本版积分规则

QQ|Archiver|手机版|小黑屋|中国高清网  |网站地图

GMT+8, 2019-4-23 18:34 , Processed in 0.122240 second(s), 41 queries .

Powered by HDchina X3.4

Copyright 2017-2018©HDchina.All right reserved

返回顶部 联系我们