你所知道的4K资源这里全部都有 4K电影 | 4K视频 | 4K壁纸 | 4K MV 怎么播放4K视频 | 4K电视演示片

教你玩转4K私人与家庭影院存储 NAS组装 | 黑群辉 家庭/影院Nas论坛

4K家庭影院信号源与视频设备知识 4K蓝光高清播放机 - 那个品牌好? 4K投影机论坛 | 4K电视机论坛

手把手教你搭建属于自己的家庭影院 4K家庭影院案例 | 家庭影院音频 4K家庭影院论坛

查看: 43|回复: 1

[剧情片] 太平间闹鬼事件2:佐治亚鬼屋事件/康州驱魔实录2 The.Haunting.In.Connecticut.2.Ghosts.Of.Georgia.2013.1080p.BluRay.x264-UNTOUCHABLES 7.64GB

[复制链接]

级别:资源管理组

UID
1
注册时间
2017-10-20
最后登录
2018-11-21
听众
0
收听
0
主题
72220
蓝光币
99015 枚
贡献
142028 点
发表于 2018-11-8 22:16:54 | 显示全部楼层 |阅读模式

承平间闹鬼事务2:佐治亚鬼屋事务/康州驱魔实录2 The.Haunting.In.Connecticut.2.Ghosts.Of.Georgia.2013.1080p.BluRay.x264-UNTOUCHABLES 7.64GB-1.jpg
◎译  名 承平间闹鬼事务2:佐治亚鬼屋事务 / 康州驱魔实录2(港) / 乔治亚鬼屋事务(台) / 佐治亚鬼缠身 / 佐治亚鬼屋事务 / 阴魂不散
◎片  名 承平间闹鬼事务2:佐治亚鬼屋事务 The Haunting in Connecticut 2: Ghosts of Georgia
◎年  代 2013
◎国  家 美国
◎类  别 剧情 / 惊悚 / 可骇
◎语  言 英语
◎上映日期 2013-02-01(美国)
◎IMDb评分  5.3/10 from 14,806 users
◎IMDb链接  http://www.imdb.com/title/tt1457765/
◎豆瓣评分 5.7/10 from 3015 users
◎豆瓣链接 https://movie.douban.com/subject/3804835/
◎片  长 100分钟
◎导  演 汤姆·艾尔金斯
◎主  演 凯缇·萨克霍夫
      查德·迈克尔·墨瑞
      阿比盖尔·斯宾赛
      艾米丽·阿琳·林德

◎简  介 

  1993年,具有幸运完竣家庭的丽萨·威瑞克(阿比盖尔·斯宾赛 Abigail Spencer 饰)精神饱受熬煎,她的家属得了遗传病症,她和姐姐乔希(凯缇·萨克霍夫 Katee Sackhoff 饰)都能看到希奇的气象,归天母亲的身影不时出现在她眼前,宣称要告诉她一些工作。为了帮助妻子治疗,丈夫安迪(查德·迈克尔·墨瑞 Chad Michael Murray 饰)在佐治亚的林间买了一间小屋,可是宝贝女儿海蒂(艾米莉·艾林·林德 Emily Alyn Lind 饰)却由此宣称可以看到一位名叫高迪的老人。乔希和安迪前后印证了海蒂的说法,但依靠药物的丽萨深信这都是小女孩的臆想。在此以后,局势朝着不成预知的偏向成长……
  本片取材自实在事务。

  • Video
  • ID                                       : 1
  • Format                                   : AVC
  • Format/Info                              : Advanced Video Codec
  • Format profile                           : [email protected]
  • Format settings, CABAC                   : Yes
  • Format settings, ReFrames                : 5 frames
  • Codec ID                                 : V_MPEG4/ISO/AVC
  • Duration                                 : 1h 40mn
  • Bit rate                                 : 9 345 Kbps
  • Width                                    : 1 920 pixels
  • Height                                   : 800 pixels
  • Display aspect ratio                     : 2.40:1
  • Frame rate mode                          : Constant
  • Frame rate                               : 23.976 (24000/1001) fps
  • Color space                              : YUV
  • Chroma subsampling                       : 4:2:0
  • Bit depth                                : 8 bits
  • Scan type                                : Progressive
  • Bits/(Pixel*Frame)                       : 0.254
  • Stream size                              : 6.43 GiB (84%)
  • Writing library                          : x264 core 130 r2273 b3065e6
  • Encoding settings                        : cabac=1 / ref=5 / deblock=1:0:0 / analyse=0x3:0x133 / me=umh / subme=7 / psy=1 / psy_rd=1.00:0.00 / mixed_ref=1 / me_range=16 / chroma_me=1 / trellis=1 / 8x8dct=1 / cqm=0 / deadzone=21,11 / fast_pskip=0 / chroma_qp_offset=-2 / threads=12 / lookahead_threads=2 / sliced_threads=0 / nr=0 / decimate=1 / interlaced=0 / bluray_compat=0 / constrained_intra=0 / bframes=3 / b_pyramid=2 / b_adapt=2 / b_bias=0 / direct=1 / weightb=1 / open_gop=0 / weightp=2 / keyint=250 / keyint_min=23 / scenecut=40 / intra_refresh=0 / rc_lookahead=40 / rc=2pass / mbtree=1 / bitrate=9345 / ratetol=1.0 / qcomp=0.60 / qpmin=0 / qpmax=69 / qpstep=4 / cplxblur=20.0 / qblur=0.5 / ip_ratio=1.40 / aq=1:1.00
  • Language                                 : English
  • Default                                  : Yes
  • Forced                                   : No
  • Audio
  • ID                                       : 2
  • Format                                   : DTS
  • Format/Info                              : Digital Theater Systems
  • Mode                                     : 16
  • Format settings, Endianness              : Big
  • Codec ID                                 : A_DTS
  • Duration                                 : 1h 40mn
  • Bit rate mode                            : Constant
  • Bit rate                                 : 1 509 Kbps
  • Channel(s)                               : 6 channels
  • Channel positions                        : Front: L C R, Side: L R, LFE
  • Sampling rate                            : 48.0 KHz
  • Frame rate                               : 93.750 fps (512 spf)
  • Bit depth                                : 24 bits
  • Compression mode                         : Lossy
  • Stream size                              : 1.06 GiB (14%)
  • Default                                  : Yes
  • Forced                                   : No
  • Text
  • ID                                       : 3
  • Format                                   : UTF-8
  • Codec ID                                 : S_TEXT/UTF8
  • Codec ID/Info                            : UTF-8 Plain Text
  • Language                                 : English
  • Default                                  : Yes
  • Forced                                   : No

复制代码

承平间闹鬼事务2:佐治亚鬼屋事务/康州驱魔实录2 The.Haunting.In.Connecticut.2.Ghosts.Of.Georgia.2013.1080p.BluRay.x264-UNTOUCHABLES 7.64GB-2.png 承平间闹鬼事务2:佐治亚鬼屋事务/康州驱魔实录2 The.Haunting.In.Connecticut.2.Ghosts.Of.Georgia.2013.1080p.BluRay.x264-UNTOUCHABLES 7.64GB-3.png 承平间闹鬼事务2:佐治亚鬼屋事务/康州驱魔实录2 The.Haunting.In.Connecticut.2.Ghosts.Of.Georgia.2013.1080p.BluRay.x264-UNTOUCHABLES 7.64GB-4.png 承平间闹鬼事务2:佐治亚鬼屋事务/康州驱魔实录2 The.Haunting.In.Connecticut.2.Ghosts.Of.Georgia.2013.1080p.BluRay.x264-UNTOUCHABLES 7.64GB-5.png 承平间闹鬼事务2:佐治亚鬼屋事务/康州驱魔实录2 The.Haunting.In.Connecticut.2.Ghosts.Of.Georgia.2013.1080p.BluRay.x264-UNTOUCHABLES 7.64GB-6.png 承平间闹鬼事务2:佐治亚鬼屋事务/康州驱魔实录2 The.Haunting.In.Connecticut.2.Ghosts.Of.Georgia.2013.1080p.BluRay.x264-UNTOUCHABLES 7.64GB-7.png





回复

使用道具 举报

级别:专业龙套 Lv.4

UID
10012
注册时间
2018-11-13
最后登录
2018-11-19
听众
0
收听
0
主题
0
蓝光币
127 枚
贡献
0 点
发表于 6 天前 | 显示全部楼层

感谢楼主分享高清电影!
回复

使用道具 举报

您需要登录后才可以回帖 登录 | 立即注册

本版积分规则

QQ|Archiver|手机版|小黑屋|中国高清网  |网站地图

GMT+8, 2018-11-21 21:52 , Processed in 0.132001 second(s), 41 queries .

Powered by HDchina X3.4

Copyright 2017-2018©HDchina.All right reserved

返回顶部 联系我们