你所知道的4K资源这里全部都有 4K电影 | 4K视频 | 4K壁纸 | 4K MV 怎么播放4K视频 | 4K电视演示片

教你玩转4K私人与家庭影院存储 NAS组装 | 黑群辉 家庭/影院Nas论坛

4K家庭影院信号源与视频设备知识 4K蓝光高清播放机 - 那个品牌好? 4K投影机论坛 | 4K电视机论坛

手把手教你搭建属于自己的家庭影院 4K家庭影院案例 | 家庭影院音频 4K家庭影院论坛

查看: 26|回复: 0

[动作片] 普西迪基地/龙虎先锋 The.Presidio.1988.1080p.BluRay.x264-FLHD 6.55GB

[复制链接]

级别:资源管理组

UID
1
注册时间
2017-10-20
最后登录
2018-11-21
听众
0
收听
0
主题
72220
蓝光币
99017 枚
贡献
142028 点
发表于 2018-11-8 22:15:37 | 显示全部楼层 |阅读模式

普西迪基地/龙虎先锋 The.Presidio.1988.1080p.BluRay.x264-FLHD 6.55GB-1.jpg
◎译  名 普西迪基地 / 龙虎先锋 / 要塞
◎片  名 普西迪基地 The Presidio
◎年  代 1988
◎国  家 美国
◎类  别 行动 / 悬疑 / 惊悚 / 犯罪
◎语  言 英语
◎上映日期 1988-06-10(美国)
◎IMDb评分  6.0/10 from 14,557 users
◎IMDb链接  http://www.imdb.com/title/tt0095897/
◎豆瓣评分 6.0/10 from 259 users
◎豆瓣链接 https://movie.douban.com/subject/1292717/
◎片  长 97 分钟
◎导  演 彼得·海姆斯
◎主  演 肖恩·康纳利
      梅格·瑞恩
      马克·哈蒙

◎简  介 

  位于旧金山中心的普西迪基地,是一个具有212年历史的著名军事基地,一位女警却在此被谋杀,年轻的旧金山警探Jay Austin(马克·哈蒙 饰)受命与Alan Caldwell(肖恩·康纳利 饰)上校一同观察此案。Alan上校之前曾是Jay Austin在军队中的主座,两人历来格格不入、针锋相对,更糟的是,Jay Austin在此时爱上了Alan上校的女儿Donna(梅格·瑞恩 饰),二人更是对峙。可是随着案情的观察,他们发现相互的关系渐形亲近,他们必须尽释前嫌,方能将这个惨无人道的杀手绳之于法!

  • Video
  • ID                                       : 1
  • Format                                   : AVC
  • Format/Info                              : Advanced Video Codec
  • Format profile                           : [email protected]
  • Format settings, CABAC                   : Yes
  • Format settings, ReFrames                : 5 frames
  • Codec ID                                 : V_MPEG4/ISO/AVC
  • Duration                                 : 1h 36mn
  • Bit rate                                 : 8 187 Kbps
  • Width                                    : 1 920 pixels
  • Height                                   : 800 pixels
  • Display aspect ratio                     : 2.40:1
  • Frame rate mode                          : Constant
  • Frame rate                               : 23.976 fps
  • Color space                              : YUV
  • Chroma subsampling                       : 4:2:0
  • Bit depth                                : 8 bits
  • Scan type                                : Progressive
  • Bits/(Pixel*Frame)                       : 0.222
  • Stream size                              : 5.40 GiB (82%)
  • Writing library                          : x264 core 133 r2334 a3ac64b
  • Encoding settings                        : cabac=1 / ref=5 / deblock=1:-1:-1 / analyse=0x3:0x113 / me=umh / subme=7 / psy=1 / psy_rd=1.00:0.00 / mixed_ref=1 / me_range=16 / chroma_me=1 / trellis=1 / 8x8dct=1 / cqm=0 / deadzone=21,11 / fast_pskip=1 / chroma_qp_offset=-2 / threads=12 / lookahead_threads=2 / sliced_threads=0 / nr=0 / decimate=1 / interlaced=0 / bluray_compat=0 / constrained_intra=0 / bframes=3 / b_pyramid=2 / b_adapt=2 / b_bias=0 / direct=3 / weightb=1 / open_gop=0 / weightp=2 / keyint=250 / keyint_min=23 / scenecut=40 / intra_refresh=0 / rc_lookahead=40 / rc=2pass / mbtree=1 / bitrate=8187 / ratetol=1.0 / qcomp=0.60 / qpmin=0 / qpmax=69 / qpstep=4 / cplxblur=20.0 / qblur=0.5 / vbv_maxrate=50000 / vbv_bufsize=50000 / nal_hrd=none / ip_ratio=1.40 / aq=1:1.00
  • Language                                 : English
  • Default                                  : Yes
  • Forced                                   : No
  • Audio
  • ID                                       : 2
  • Format                                   : DTS
  • Format/Info                              : Digital Theater Systems
  • Mode                                     : 16
  • Format settings, Endianness              : Big
  • Codec ID                                 : A_DTS
  • Duration                                 : 1h 36mn
  • Bit rate mode                            : Constant
  • Bit rate                                 : 1 509 Kbps
  • Channel(s)                               : 6 channels
  • Channel positions                        : Front: L C R, Side: L R, LFE
  • Sampling rate                            : 48.0 KHz
  • Bit depth                                : 24 bits
  • Compression mode                         : Lossy
  • Stream size                              : 1.02 GiB (16%)
  • Language                                 : English
  • Default                                  : Yes
  • Forced                                   : No

复制代码

普西迪基地/龙虎先锋 The.Presidio.1988.1080p.BluRay.x264-FLHD 6.55GB-2.png 普西迪基地/龙虎先锋 The.Presidio.1988.1080p.BluRay.x264-FLHD 6.55GB-3.png 普西迪基地/龙虎先锋 The.Presidio.1988.1080p.BluRay.x264-FLHD 6.55GB-4.png 普西迪基地/龙虎先锋 The.Presidio.1988.1080p.BluRay.x264-FLHD 6.55GB-5.png 普西迪基地/龙虎先锋 The.Presidio.1988.1080p.BluRay.x264-FLHD 6.55GB-6.png 普西迪基地/龙虎先锋 The.Presidio.1988.1080p.BluRay.x264-FLHD 6.55GB-7.png





回复

使用道具 举报

您需要登录后才可以回帖 登录 | 立即注册

本版积分规则

QQ|Archiver|手机版|小黑屋|中国高清网  |网站地图

GMT+8, 2018-11-21 22:52 , Processed in 0.120452 second(s), 41 queries .

Powered by HDchina X3.4

Copyright 2017-2018©HDchina.All right reserved

返回顶部 联系我们