你所知道的4K资源这里全部都有 4K电影 | 4K视频 | 4K壁纸 | 4K MV 怎么播放4K视频 | 4K电视演示片

教你玩转4K私人与家庭影院存储 NAS组装 | 黑群辉 家庭/影院Nas论坛

4K家庭影院信号源与视频设备知识 4K蓝光高清播放机 - 那个品牌好? 4K投影机论坛 | 4K电视机论坛

手把手教你搭建属于自己的家庭影院 4K家庭影院案例 | 家庭影院音频 4K家庭影院论坛

查看: 59|回复: 0

[喜剧片] 柳暗花明/快乐的离婚者 The.Gay.Divorcee.1934.720p.BluRay.x264-REGRET 4.38GB

[复制链接]

 成长值: 1040

级别:资源管理组

注册时间
2017-10-20
最后登录
2019-4-23
听众
0
收听
0
主题
76979
蓝光币
8533 枚
贡献
1287 点
发表于 2018-11-8 16:44:22 | 显示全部楼层 |阅读模式
0 c4 [. o7 Y6 h2 y* Y
柳暗花明/欢畅的仳离者 The.Gay.Divorcee.1934.720p.BluRay.x264-REGRET 4.38GB-1.jpg 2 t$ y  V7 l; a1 f0 g- ]. a
◎译  名 柳暗花明 / 欢畅的仳离者
! Z& r  U/ _  \- k◎片  名 柳暗花明 The Gay Divorcee
: p! C. v/ ~0 p# b) W5 ]$ ^◎年  代 19340 ~! K9 `1 U1 |/ [  a
◎国  家 美国
' v, B. e& }9 H2 O2 C* |◎类  别 笑剧 / 恋爱 / 歌舞9 ^' g& P9 m0 n( D  _
◎语  言 英语 / 意大利语8 C4 D3 t' R5 L" Q1 J+ Y
◎上映日期 1934-10-12
) K) E: q9 X& d4 V5 G◎IMDb评分  7.6/10 from 6,000 users% F  e) l( g. C) e: K$ Y+ t
◎IMDb链接  http://www.imdb.com/title/tt0025164/
  c' n" ~0 T( U◎豆瓣评分 7.5/10 from 240 users, X" v3 N2 t0 P. _  Y3 ~
◎豆瓣链接 https://movie.douban.com/subject/1299736/
8 b* O, ?1 W/ L6 [. p◎片  长 107 分钟
3 D& J. ]+ z/ \8 W; s5 `9 r2 S◎导  演 马克·桑德里奇- u8 G! A+ h+ P4 _5 D# B% [
◎主  演 弗雷德·阿斯泰尔
: V5 O6 B6 u, o      金杰·罗杰斯7 R* B# y, I* R1 O4 @4 T" P
      艾丽丝·布雷迪. g3 }' B5 [, _: q% R: |( \6 A
      爱德华·艾沃瑞特·霍顿- p2 L; z, r, I! V% Z8 K
5 \5 `. K; i0 C) Y* u! C9 m2 c# S
◎简  介 % k& y% p) F) q; g0 ~: u) ^- @
: V# H) w' l1 _! G0 Z+ w( m' G$ E
  一个很是著名的美国舞蹈家盖·霍尔顿与他的一个律师朋友艾尔伯特·费茨杰拉德一路观光。在巴黎呆了一段很短的时候以后,他们搭船到了伦敦,在那边,埃尔伯特发现他自己必须去接管他的律师父亲留在斯克特的职位,但他只能天天无所作为地坐在办公室里。盖·霍尔顿碰到了咪咪·格拉索普,她的衣服被她的寒暄花婶婶霍特尼脱下来塞在一个箱子里。盖·霍尔顿救下她以后,把自己的雨衣给了她披在身上兵留给她联系方式。后来,霍特尼成婚了,但很不幸运。她的侄女咪咪也试图在她的好朋友艾尔伯特的帮助下仳离。为了与父亲更好地相处,埃尔伯特赞成接管这个案子,决议雇佣一个名叫萝多夫·托尼特的舞男作为他的助手……。2 m# B+ D: K6 s! l9 @/ }
  《柳暗花明》作为一部很有可看性的歌舞片,自然整部影片都以歌曲和舞蹈贯串,可是本片比力突出的是,和其他纯洁的歌舞片分歧,它具有完整而且符合逻辑的情节线。但虽然如此,这些情节仍然只是歌舞的捏词。这部电影获得了奥斯卡奖三项提名,而且获得了第一个奥斯卡最好歌曲奖。本片女配角的饰演者辛格·萝杰斯从三岁时就起头出现在各类电影中,拍摄本片时她已经出演过34部电影。男配角饰演着弗雷德泽来自于百老汇,他出色的舞蹈才能为他赢得了普遍的名声,他在本片中出演的舞蹈家有一颗善良质朴的心,他以出色的演技赢得了众多喝彩。
) f3 }: W% S' ^/ ^5 h) ]7 R  本片曾获第7届学院奖插曲“the continental”奖,还有最好影片、艺术指导、原创配乐、录音四项提名。
: m+ u( u* {9 j+ B4 t
' S% o$ {# s; o6 S◎获奖情况 
/ Q7 P0 b  X/ e# j3 O
) L: t- _" H8 O8 ]  |+ w6 R; l  第7届奥斯卡金像奖 (1935)
* v& q' Y) d6 I4 y2 u% J  最好影片(提名), A  ?' k! G: k+ j4 m
  最好录音(提名) Carl Dreher/ u0 z& I$ x' D- |# \4 k' X. n' K
  最好艺术指导(提名) 卡罗尔·克拉克 /  范·内斯特·波格拉斯
) P# X9 t% T0 ]+ A+ i  最好配乐(提名) 马克思·斯坦纳
# g4 |4 _; T& ]& o' Z' l, `  最好原创歌曲 Con Conrad /  Herb Magidson1 V# \, M; Z& u' k7 V; i

% k7 p& G. s. t2 c1 }  |& A

  1. - U* u9 e3 o$ G" }% q( o& h# j
  2. Video2 Q# t7 G: M* H. S
  3. ID                                       : 1
    * @, ^) g/ A; n; a- ]5 z
  4. Format                                   : AVC" e" d4 o3 C8 p) T. n# h# `
  5. Format/Info                              : Advanced Video Codec
      B  k8 ~: N2 {- t$ b5 J8 G) o
  6. Format profile                           : [url=/cdn-cgi/l/email-protection][email protected][/url]: X7 c8 r5 k4 x: X# u
  7. Format settings                          : CABAC / 5 Ref Frames
    8 J0 q( ^: p, T% _' N0 M' N2 ~
  8. Format settings, CABAC                   : Yes1 x( ~4 P( ]2 e9 ~- I* U
  9. Format settings, ReFrames                : 5 frames+ s% g) E) k5 d% H7 ~+ c1 c" C
  10. Codec ID                                 : V_MPEG4/ISO/AVC) ?9 s' [, E: C" x# P9 d) G
  11. Duration                                 : 1 h 45 min
    # g5 q8 v' i9 i& \
  12. Bit rate                                 : 5 597 kb/s6 I4 D) [: O& e) X1 @: ~
  13. Width                                    : 960 pixels8 B' a0 f9 O& O
  14. Height                                   : 720 pixels
    & E# O+ C1 O4 q# J
  15. Display aspect ratio                     : 4:3
    / ^* b  y3 ?, b( Z
  16. Frame rate mode                          : Constant
    , T& b& @$ Z5 f9 e9 o: w8 ?
  17. Frame rate                               : 23.976 (24000/1001) FPS
    - ]8 d: Y+ Q* a& x; S$ h3 L
  18. Color space                              : YUV
    2 n' O" Y2 H! g: j! u; {+ F. C! J# k2 q
  19. Chroma subsampling                       : 4:2:0% \1 ]/ R$ k2 H* W
  20. Bit depth                                : 8 bits" G( D2 g# q* t9 n* ]
  21. Scan type                                : Progressive0 m% [3 X. u7 p
  22. Bits/(Pixel*Frame)                       : 0.338
    * p5 C8 Y5 s8 q1 f# N3 P# z
  23. Stream size                              : 4.11 GiB (94%)
    + ~. B# O- z* B+ S$ B5 o& Y
  24. Writing library                          : x264 core 157 r2935 545de2f
    9 u' {$ t% x2 |9 e
  25. Encoding settings                        : cabac=1 / ref=5 / deblock=1:-3:-3 / analyse=0x3:0x133 / me=umh / subme=9 / psy=1 / psy_rd=1.00:0.00 / mixed_ref=1 / me_range=16 / chroma_me=1 / trellis=2 / 8x8dct=1 / cqm=0 / deadzone=21,11 / fast_pskip=0 / chroma_qp_offset=-2 / threads=22 / lookahead_threads=1 / sliced_threads=0 / nr=0 / decimate=1 / interlaced=0 / bluray_compat=0 / constrained_intra=0 / bframes=3 / b_pyramid=2 / b_adapt=1 / b_bias=0 / direct=3 / weightb=1 / open_gop=0 / weightp=2 / keyint=240 / keyint_min=24 / scenecut=40 / intra_refresh=0 / rc_lookahead=50 / rc=2pass / mbtree=1 / bitrate=5597 / ratetol=1.0 / qcomp=0.60 / qpmin=0 / qpmax=69 / qpstep=4 / cplxblur=20.0 / qblur=0.5 / ip_ratio=1.40 / aq=1:1.003 a7 u, |* s" B$ l1 Z
  26. Language                                 : English
    ; u1 ?% v2 P) M' S; ^4 }# o
  27. Default                                  : Yes4 C( c6 y! J/ g3 ~/ m! `
  28. Forced                                   : No
    , C1 e1 S4 ^6 d3 V5 x! U& H

  29. ( g$ \9 s9 p. o# y; F3 t4 A
  30. Audio& [* O) @8 f. |/ A) x. v$ h# B
  31. ID                                       : 2
    / @9 d2 W% ?4 h6 u4 g$ m
  32. Format                                   : FLAC
    3 g2 _4 K' T* b" [3 y  z
  33. Format/Info                              : Free Lossless Audio Codec7 }1 \- u% A! n. [
  34. Codec ID                                 : A_FLAC
    7 B( _/ H8 j# F- V& Z* V5 i8 \
  35. Duration                                 : 1 h 45 min
      s' u. y# z# _+ m* \, h
  36. Bit rate mode                            : Variable1 K$ r  h/ ~2 y& A
  37. Bit rate                                 : 351 kb/s
    : b& l9 s+ c+ `& N
  38. Channel(s)                               : 2 channels
    7 Z0 d* T* J, ?3 c  g
  39. Channel layout                           : L R3 z4 Y, n8 A- O" Z# \; E
  40. Sampling rate                            : 48.0 kHz
    ' e% g3 _0 D9 A+ P2 A9 A3 W1 M7 B
  41. Frame rate                               : 11.719 FPS (4096 SPF)6 ?4 {* F2 p8 `  M
  42. Bit depth                                : 16 bits- I8 F6 ^* _8 G  f: a. \
  43. Compression mode                         : Lossless' E4 X8 b- N$ G% d2 w8 C
  44. Stream size                              : 264 MiB (6%)
    ) Z  X* o) Y+ c- l' x
  45. Writing library                          : libFLAC 1.2.1 (UTC 2007-09-17)
    % o/ l- k2 [3 W$ t  @2 S# g
  46. Language                                 : English2 m# X4 J  W. c' J
  47. Default                                  : Yes
    . V/ z. X# B5 a4 e8 A9 m; N. E
  48. Forced                                   : No; a3 I  U4 A- q) D1 A

  49. + g7 Q) G% Q3 z7 P9 g! ]
  50. Menu* W* P5 e- n; V
  51. 00:00:00.000                             : en:00:00:00.000
    8 S" a, A1 A) m( U9 `: }' ]3 w
  52. 00:09:43.958                             : en:00:09:43.9582 f1 A9 d9 `* r
  53. 00:21:23.491                             : en:00:21:23.491
    3 N* O2 Z+ f, k  _0 g7 @6 D) P1 ]) n
  54. 00:33:23.460                             : en:00:33:23.460; C' m% t* f% T; E
  55. 00:41:33.157                             : en:00:41:33.1576 s- |8 i- Z# C/ P+ \* f
  56. 00:50:21.977                             : en:00:50:21.977  ^  l( v4 ]1 e5 k9 x
  57. 00:58:56.032                             : en:00:58:56.032" L2 m- s/ @2 R" I( {7 F3 z) d  _
  58. 01:10:23.302                             : en:01:10:23.302
    . U7 d% g& T: @0 Q! ]. f) q
  59. 01:20:20.399                             : en:01:20:20.399( x7 R* s, p! `  r/ I8 h0 |
  60. 01:32:40.180                             : en:01:32:40.180. j: ^% ^6 F9 |# |' T% t2 T# R
复制代码
, ^7 W$ r. b- l3 K
复制代码" i9 G  k& V6 b2 t% C
8 w0 S* S$ |. u7 o2 d% t
柳暗花明/欢畅的仳离者 The.Gay.Divorcee.1934.720p.BluRay.x264-REGRET 4.38GB-2.jpg 9 ?* D. g2 G3 }1 K% k- U' A

- \6 f" T% K: h. U" s# j0 R
5 I0 [2 W' w& B$ x. _# N% x- H/ l8 @! t

5 h7 E* l1 g# _. x5 K) P  Q7 v
回复

使用道具 举报

懒得打字嘛,点击右侧快捷回复 【右侧内容,后台自定义】
您需要登录后才可以回帖 登录 | 立即注册

本版积分规则

QQ|Archiver|手机版|小黑屋|中国高清网  |网站地图

GMT+8, 2019-4-23 18:32 , Processed in 0.136295 second(s), 41 queries .

Powered by HDchina X3.4

Copyright 2017-2018©HDchina.All right reserved

返回顶部 联系我们