你所知道的4K资源这里全部都有 4K电影 | 4K视频 | 4K壁纸 | 4K MV 怎么播放4K视频 | 4K电视演示片

教你玩转4K私人与家庭影院存储 NAS组装 | 黑群辉 家庭/影院Nas论坛

4K家庭影院信号源与视频设备知识 4K蓝光高清播放机 - 那个品牌好? 4K投影机论坛 | 4K电视机论坛

手把手教你搭建属于自己的家庭影院 4K家庭影院案例 | 家庭影院音频 4K家庭影院论坛

查看: 41|回复: 0

[喜剧片] 柳暗花明/快乐的离婚者 The.Gay.Divorcee.1934.720p.BluRay.x264-REGRET 4.38GB

[复制链接]

 成长值: 120

级别:资源管理组

UID
1
注册时间
2017-10-20
最后登录
2019-1-22
听众
0
收听
0
主题
73918
蓝光币
116409 枚
贡献
143727 点
发表于 2018-11-8 16:44:22 | 显示全部楼层 |阅读模式
" j: t% V* [" g) b2 D1 T
柳暗花明/欢畅的仳离者 The.Gay.Divorcee.1934.720p.BluRay.x264-REGRET 4.38GB-1.jpg ( k' v" D) q2 W# k
◎译  名 柳暗花明 / 欢畅的仳离者
1 c9 Z  e6 e" d) D0 p; k◎片  名 柳暗花明 The Gay Divorcee
& }9 I; q$ o! J: W◎年  代 1934
' r$ j/ D2 I  z( N$ _$ L" |◎国  家 美国
  ~* M' r7 }" p9 X8 N. l8 O. {◎类  别 笑剧 / 恋爱 / 歌舞
- Z; C8 o( p# C+ ]" {2 ?◎语  言 英语 / 意大利语( n/ v4 y: G0 N8 J7 q: L( M& s3 F
◎上映日期 1934-10-12
! m- E9 \/ e; C6 o( I3 O◎IMDb评分  7.6/10 from 6,000 users6 U9 p2 ^4 v; r8 |
◎IMDb链接  http://www.imdb.com/title/tt0025164/
9 {( u/ l( f2 G! v/ q◎豆瓣评分 7.5/10 from 240 users
$ {$ d# U; f8 ~: L2 {6 ]◎豆瓣链接 https://movie.douban.com/subject/1299736/
) d3 s. v3 H; X4 H' }& n& q◎片  长 107 分钟
5 G/ w" U2 b8 |◎导  演 马克·桑德里奇
9 r1 g1 O1 n. o1 L◎主  演 弗雷德·阿斯泰尔* d8 {1 ?  m! j2 u
      金杰·罗杰斯5 C1 |/ h4 {7 ]4 o  x
      艾丽丝·布雷迪& `/ e+ X5 D, |2 ?# Q. b! ?
      爱德华·艾沃瑞特·霍顿6 Z2 g, G, N2 k$ \1 l$ z4 s5 Z
  r0 b8 |, q5 W7 M# k  M9 z9 N
◎简  介 . o) ]. x7 z+ ^! O2 {

/ }. N3 E: `8 u( H; d  一个很是著名的美国舞蹈家盖·霍尔顿与他的一个律师朋友艾尔伯特·费茨杰拉德一路观光。在巴黎呆了一段很短的时候以后,他们搭船到了伦敦,在那边,埃尔伯特发现他自己必须去接管他的律师父亲留在斯克特的职位,但他只能天天无所作为地坐在办公室里。盖·霍尔顿碰到了咪咪·格拉索普,她的衣服被她的寒暄花婶婶霍特尼脱下来塞在一个箱子里。盖·霍尔顿救下她以后,把自己的雨衣给了她披在身上兵留给她联系方式。后来,霍特尼成婚了,但很不幸运。她的侄女咪咪也试图在她的好朋友艾尔伯特的帮助下仳离。为了与父亲更好地相处,埃尔伯特赞成接管这个案子,决议雇佣一个名叫萝多夫·托尼特的舞男作为他的助手……。
* m6 L3 ~  k* Z' Q' T0 i% p2 C% {  《柳暗花明》作为一部很有可看性的歌舞片,自然整部影片都以歌曲和舞蹈贯串,可是本片比力突出的是,和其他纯洁的歌舞片分歧,它具有完整而且符合逻辑的情节线。但虽然如此,这些情节仍然只是歌舞的捏词。这部电影获得了奥斯卡奖三项提名,而且获得了第一个奥斯卡最好歌曲奖。本片女配角的饰演者辛格·萝杰斯从三岁时就起头出现在各类电影中,拍摄本片时她已经出演过34部电影。男配角饰演着弗雷德泽来自于百老汇,他出色的舞蹈才能为他赢得了普遍的名声,他在本片中出演的舞蹈家有一颗善良质朴的心,他以出色的演技赢得了众多喝彩。5 s( K; i, Y2 J7 U9 S- C
  本片曾获第7届学院奖插曲“the continental”奖,还有最好影片、艺术指导、原创配乐、录音四项提名。
- O% ?+ z8 f! _# ^5 j- G' m' n& u% g3 N# @. T5 t! \& G$ K: p
◎获奖情况 
7 O% f3 n' |! b4 p; k9 B' A, m' ]
  第7届奥斯卡金像奖 (1935)  b5 Z) Y, e6 W9 ~3 j! s
  最好影片(提名), w9 M, A3 I1 w% h% }4 v) C* O2 `) O
  最好录音(提名) Carl Dreher. W7 b  N2 W/ j4 S" F) N, ?
  最好艺术指导(提名) 卡罗尔·克拉克 /  范·内斯特·波格拉斯* A* S% Q* L* H* ^
  最好配乐(提名) 马克思·斯坦纳
; q+ k' h% O8 T6 u$ r; P$ @( Y! O- w8 [  最好原创歌曲 Con Conrad /  Herb Magidson- }( J0 D$ |* ]* G9 l2 W+ h% O" n  _8 v

: R5 v2 [3 Z! |% O( j* `' R: S7 Q( ^
  1. . ]! k: C3 x  ?1 n+ Z
  2. Video
    : c/ f, \- \3 [
  3. ID                                       : 1: E+ n. T& |: o7 k" I) F% @( M& z
  4. Format                                   : AVC
    ; Z# J8 L: n" |! Z, q' p5 {8 ?7 S
  5. Format/Info                              : Advanced Video Codec
    ( o' u- R0 U4 q% |, g
  6. Format profile                           : [url=/cdn-cgi/l/email-protection][email protected][/url]4 L: ]; L4 a1 t$ o1 e1 @1 ]' R
  7. Format settings                          : CABAC / 5 Ref Frames0 G3 o# T/ L0 O" F& O* d4 h
  8. Format settings, CABAC                   : Yes. r6 I+ t% y9 B7 t% Q  [
  9. Format settings, ReFrames                : 5 frames* ?5 c, F7 V4 F: }- L: M! p
  10. Codec ID                                 : V_MPEG4/ISO/AVC
    # ?% B0 f. u6 e" M* A$ H9 v
  11. Duration                                 : 1 h 45 min
    3 s! X+ X7 w8 B$ l2 G4 |
  12. Bit rate                                 : 5 597 kb/s
    8 ^1 @5 R- U$ I" V
  13. Width                                    : 960 pixels
    & _) ~/ ~- a, V* i( V! _9 y( [* d6 `
  14. Height                                   : 720 pixels% _. r/ U7 X7 j2 O4 }8 V( k
  15. Display aspect ratio                     : 4:3: C1 W* e: B9 m1 ~7 J, R$ \. h
  16. Frame rate mode                          : Constant) u$ S# Y7 Y, a6 N; w2 T" m
  17. Frame rate                               : 23.976 (24000/1001) FPS& J9 X& t( I  [- M" e  ]
  18. Color space                              : YUV
    + ]' C' s/ {" g5 S8 b' C
  19. Chroma subsampling                       : 4:2:0. e# _3 Z$ k. t& c" Z7 y/ k
  20. Bit depth                                : 8 bits7 h2 p+ V  Z5 ]8 b# t
  21. Scan type                                : Progressive+ z/ t; v: ?" d! M9 O
  22. Bits/(Pixel*Frame)                       : 0.338! a9 W5 u, q( W  A
  23. Stream size                              : 4.11 GiB (94%)
    ! ^2 H6 t, F- c
  24. Writing library                          : x264 core 157 r2935 545de2f6 A7 N3 W+ {( P- S
  25. Encoding settings                        : cabac=1 / ref=5 / deblock=1:-3:-3 / analyse=0x3:0x133 / me=umh / subme=9 / psy=1 / psy_rd=1.00:0.00 / mixed_ref=1 / me_range=16 / chroma_me=1 / trellis=2 / 8x8dct=1 / cqm=0 / deadzone=21,11 / fast_pskip=0 / chroma_qp_offset=-2 / threads=22 / lookahead_threads=1 / sliced_threads=0 / nr=0 / decimate=1 / interlaced=0 / bluray_compat=0 / constrained_intra=0 / bframes=3 / b_pyramid=2 / b_adapt=1 / b_bias=0 / direct=3 / weightb=1 / open_gop=0 / weightp=2 / keyint=240 / keyint_min=24 / scenecut=40 / intra_refresh=0 / rc_lookahead=50 / rc=2pass / mbtree=1 / bitrate=5597 / ratetol=1.0 / qcomp=0.60 / qpmin=0 / qpmax=69 / qpstep=4 / cplxblur=20.0 / qblur=0.5 / ip_ratio=1.40 / aq=1:1.00
    $ Z3 C, i$ ~2 }7 Z2 u
  26. Language                                 : English
    ; a2 y& I- C. P: \) ?; O! W0 V# h
  27. Default                                  : Yes* N- E9 g0 w3 `# D/ e, z' n9 @
  28. Forced                                   : No( N5 P( E; d* E" c; e8 c# S/ n! Q& o

  29. ! [7 C. K' |* t# h' ?! l- t" p
  30. Audio
    9 A. B$ M5 E6 I9 _/ V7 l
  31. ID                                       : 2
    , \1 c; a* Z2 |' I
  32. Format                                   : FLAC, N0 H; w" n5 p
  33. Format/Info                              : Free Lossless Audio Codec
    " e8 C: Y. |  b9 u9 Y- }
  34. Codec ID                                 : A_FLAC$ z1 R" Z+ E$ f; D1 F( v
  35. Duration                                 : 1 h 45 min: O0 W5 x# J2 ?: e0 `
  36. Bit rate mode                            : Variable
    2 ^; Z/ ?7 Z, r4 Z7 q
  37. Bit rate                                 : 351 kb/s* M& L( H2 z$ |! M/ D
  38. Channel(s)                               : 2 channels
    + s, o% r" {8 I
  39. Channel layout                           : L R4 j! ~+ u2 V8 E
  40. Sampling rate                            : 48.0 kHz- |  }; P( ]1 d, v8 ^1 W' C5 T
  41. Frame rate                               : 11.719 FPS (4096 SPF)
    8 |+ v/ S. G- @, ~7 ^$ I( `; |
  42. Bit depth                                : 16 bits
    ) }" \6 J! v4 {* R; I! s
  43. Compression mode                         : Lossless
    3 @- h& i) k- f: f' G
  44. Stream size                              : 264 MiB (6%)% \2 {3 p0 e; x0 m  o# {' |
  45. Writing library                          : libFLAC 1.2.1 (UTC 2007-09-17), Z- O9 f' `- {. q9 f
  46. Language                                 : English5 K" t$ w  `7 Z) b( ]% M
  47. Default                                  : Yes
    + C3 q2 C/ d: o. f6 v2 I
  48. Forced                                   : No
    8 l5 o  U& O  l. U  V/ @* y

  49. 6 a4 L* G4 M" @) _
  50. Menu4 x& t% m, D5 h0 p0 Y
  51. 00:00:00.000                             : en:00:00:00.000( E% E; U0 r$ h- o/ c' J6 T
  52. 00:09:43.958                             : en:00:09:43.958' U5 I8 A9 @) I& @7 e5 i
  53. 00:21:23.491                             : en:00:21:23.491
    ! ?! f$ }  @, w3 O* Y% G% s; q; o7 k0 u
  54. 00:33:23.460                             : en:00:33:23.460
    / P, `& b* T0 B- _# `( Y+ u. T
  55. 00:41:33.157                             : en:00:41:33.157: {' R, T* d- C; v: q
  56. 00:50:21.977                             : en:00:50:21.9773 o- M8 N( b2 S7 N
  57. 00:58:56.032                             : en:00:58:56.032, }1 b% o4 p9 e; N3 ?1 a5 |4 z
  58. 01:10:23.302                             : en:01:10:23.302# I" e: d' u5 W
  59. 01:20:20.399                             : en:01:20:20.399  k' w" z& G/ m/ y$ B4 d
  60. 01:32:40.180                             : en:01:32:40.180. ]! M+ ?9 I6 y. ?6 B9 @
复制代码

" K) v" s( f( }' b( N2 F5 N3 r; q复制代码; T1 F/ U! v$ `- ]

( d# \; J+ w% u& ?  |: s) w3 \4 { 柳暗花明/欢畅的仳离者 The.Gay.Divorcee.1934.720p.BluRay.x264-REGRET 4.38GB-2.jpg
$ o! f* m6 e; C! m/ y7 q
- o9 L8 C. C; w3 \: P" o9 u) B
2 b( o; \' h& m& N
. A9 a9 V9 [  k/ H4 [9 z
3 |1 p9 B( Z8 ~  [2 a
回复

使用道具 举报

懒得打字嘛,点击右侧快捷回复 【右侧内容,后台自定义】
您需要登录后才可以回帖 登录 | 立即注册

本版积分规则

QQ|Archiver|手机版|小黑屋|中国高清网 |网站地图

GMT+8, 2019-1-22 08:35 , Processed in 0.135864 second(s), 40 queries .

Powered by HDchina X3.4

Copyright 2017-2018©HDchina.All right reserved

返回顶部 联系我们