你所知道的4K资源这里全部都有 4K电影 | 4K视频 | 4K壁纸 | 4K MV 怎么播放4K视频 | 4K电视演示片

教你玩转4K私人与家庭影院存储 NAS组装 | 黑群辉 家庭/影院Nas论坛

4K家庭影院信号源与视频设备知识 4K蓝光高清播放机 - 那个品牌好? 4K投影机论坛 | 4K电视机论坛

手把手教你搭建属于自己的家庭影院 4K家庭影院案例 | 家庭影院音频 4K家庭影院论坛

查看: 25|回复: 0

[喜剧片] 柳暗花明/快乐的离婚者 The.Gay.Divorcee.1934.720p.BluRay.x264-REGRET 4.38GB

[复制链接]

级别:资源管理组

UID
1
注册时间
2017-10-20
最后登录
2018-11-21
听众
0
收听
0
主题
72220
蓝光币
99015 枚
贡献
142028 点
发表于 2018-11-8 16:44:22 | 显示全部楼层 |阅读模式

$ n: l3 h+ E+ v$ m% Y( s+ x 柳暗花明/欢畅的仳离者 The.Gay.Divorcee.1934.720p.BluRay.x264-REGRET 4.38GB-1.jpg 2 F" l, h) Z5 H: @
◎译  名 柳暗花明 / 欢畅的仳离者
0 j& j, r+ W* z- `$ ]◎片  名 柳暗花明 The Gay Divorcee$ \& t, P2 ]# N1 D
◎年  代 1934/ m) H; D0 y6 M6 W2 {% ^" m
◎国  家 美国4 T5 m# p# |) d6 _  T6 T- m
◎类  别 笑剧 / 恋爱 / 歌舞
/ l1 X* k  w2 i( E, h2 n: b◎语  言 英语 / 意大利语
# ^( u/ {* j. J- U& w◎上映日期 1934-10-12, T+ r  D) L. u6 x: i# ?2 ~. e1 |
◎IMDb评分  7.6/10 from 6,000 users1 A0 I/ L2 Z. M* r5 P
◎IMDb链接  http://www.imdb.com/title/tt0025164/3 [" D4 O/ S; U! M
◎豆瓣评分 7.5/10 from 240 users
, j5 f! J1 X+ X5 j) d◎豆瓣链接 https://movie.douban.com/subject/1299736/- u- Y. e6 |. W/ W3 ?) Z$ V
◎片  长 107 分钟6 N3 m4 q$ @; {; {0 P
◎导  演 马克·桑德里奇
$ u3 K: G- W5 u8 ~. m5 C; ~◎主  演 弗雷德·阿斯泰尔
/ y5 P2 N: Q7 U1 g" i. o7 I      金杰·罗杰斯" B6 v- R$ M* ~9 k, N  |
      艾丽丝·布雷迪
" B& g+ c6 q- R      爱德华·艾沃瑞特·霍顿+ i# M& {+ u0 H! D% d  Y2 b

1 k7 o+ t5 P5 U6 N+ E: V; D- \◎简  介 
% ?/ @5 ]/ U) q& I' B8 [) ^
8 d1 k8 U/ \; s2 K; L  一个很是著名的美国舞蹈家盖·霍尔顿与他的一个律师朋友艾尔伯特·费茨杰拉德一路观光。在巴黎呆了一段很短的时候以后,他们搭船到了伦敦,在那边,埃尔伯特发现他自己必须去接管他的律师父亲留在斯克特的职位,但他只能天天无所作为地坐在办公室里。盖·霍尔顿碰到了咪咪·格拉索普,她的衣服被她的寒暄花婶婶霍特尼脱下来塞在一个箱子里。盖·霍尔顿救下她以后,把自己的雨衣给了她披在身上兵留给她联系方式。后来,霍特尼成婚了,但很不幸运。她的侄女咪咪也试图在她的好朋友艾尔伯特的帮助下仳离。为了与父亲更好地相处,埃尔伯特赞成接管这个案子,决议雇佣一个名叫萝多夫·托尼特的舞男作为他的助手……。
; }2 Z1 K& k, w  《柳暗花明》作为一部很有可看性的歌舞片,自然整部影片都以歌曲和舞蹈贯串,可是本片比力突出的是,和其他纯洁的歌舞片分歧,它具有完整而且符合逻辑的情节线。但虽然如此,这些情节仍然只是歌舞的捏词。这部电影获得了奥斯卡奖三项提名,而且获得了第一个奥斯卡最好歌曲奖。本片女配角的饰演者辛格·萝杰斯从三岁时就起头出现在各类电影中,拍摄本片时她已经出演过34部电影。男配角饰演着弗雷德泽来自于百老汇,他出色的舞蹈才能为他赢得了普遍的名声,他在本片中出演的舞蹈家有一颗善良质朴的心,他以出色的演技赢得了众多喝彩。
& k) o# U" `! S4 l  本片曾获第7届学院奖插曲“the continental”奖,还有最好影片、艺术指导、原创配乐、录音四项提名。$ Z  A0 c' j  q/ ]/ r* t0 R
0 X2 D) s* Z0 [3 R/ @" j# t
◎获奖情况 
) s( S/ S  W1 C% h4 x9 g" H# N0 }8 I- n: @" Z
6 R; j) l. D2 I  第7届奥斯卡金像奖 (1935)$ {2 g7 G4 J, C+ Q
  最好影片(提名)
8 M) V, ^! K! J  最好录音(提名) Carl Dreher
& b, k4 \1 r/ |# `2 ?7 S  X  最好艺术指导(提名) 卡罗尔·克拉克 /  范·内斯特·波格拉斯( H0 a& {. t; c
  最好配乐(提名) 马克思·斯坦纳% F! ~/ o* l$ g# E" u# o
  最好原创歌曲 Con Conrad /  Herb Magidson. R4 c+ Y# T( X' q

6 i* K! w$ b6 J- C5 t
  • Video
  • ID                                       : 1
  • Format                                   : AVC
  • Format/Info                              : Advanced Video Codec
  • Format profile                           : [email protected]
  • Format settings                          : CABAC / 5 Ref Frames
  • Format settings, CABAC                   : Yes
  • Format settings, ReFrames                : 5 frames
  • Codec ID                                 : V_MPEG4/ISO/AVC
  • Duration                                 : 1 h 45 min
  • Bit rate                                 : 5 597 kb/s
  • Width                                    : 960 pixels
  • Height                                   : 720 pixels
  • Display aspect ratio                     : 4:3
  • Frame rate mode                          : Constant
  • Frame rate                               : 23.976 (24000/1001) FPS
  • Color space                              : YUV
  • Chroma subsampling                       : 4:2:0
  • Bit depth                                : 8 bits
  • Scan type                                : Progressive
  • Bits/(Pixel*Frame)                       : 0.338
  • Stream size                              : 4.11 GiB (94%)
  • Writing library                          : x264 core 157 r2935 545de2f
  • Encoding settings                        : cabac=1 / ref=5 / deblock=1:-3:-3 / analyse=0x3:0x133 / me=umh / subme=9 / psy=1 / psy_rd=1.00:0.00 / mixed_ref=1 / me_range=16 / chroma_me=1 / trellis=2 / 8x8dct=1 / cqm=0 / deadzone=21,11 / fast_pskip=0 / chroma_qp_offset=-2 / threads=22 / lookahead_threads=1 / sliced_threads=0 / nr=0 / decimate=1 / interlaced=0 / bluray_compat=0 / constrained_intra=0 / bframes=3 / b_pyramid=2 / b_adapt=1 / b_bias=0 / direct=3 / weightb=1 / open_gop=0 / weightp=2 / keyint=240 / keyint_min=24 / scenecut=40 / intra_refresh=0 / rc_lookahead=50 / rc=2pass / mbtree=1 / bitrate=5597 / ratetol=1.0 / qcomp=0.60 / qpmin=0 / qpmax=69 / qpstep=4 / cplxblur=20.0 / qblur=0.5 / ip_ratio=1.40 / aq=1:1.00
  • Language                                 : English
  • Default                                  : Yes
  • Forced                                   : No
  • Audio
  • ID                                       : 2
  • Format                                   : FLAC
  • Format/Info                              : Free Lossless Audio Codec
  • Codec ID                                 : A_FLAC
  • Duration                                 : 1 h 45 min
  • Bit rate mode                            : Variable
  • Bit rate                                 : 351 kb/s
  • Channel(s)                               : 2 channels
  • Channel layout                           : L R
  • Sampling rate                            : 48.0 kHz
  • Frame rate                               : 11.719 FPS (4096 SPF)
  • Bit depth                                : 16 bits
  • Compression mode                         : Lossless
  • Stream size                              : 264 MiB (6%)
  • Writing library                          : libFLAC 1.2.1 (UTC 2007-09-17)
  • Language                                 : English
  • Default                                  : Yes
  • Forced                                   : No
  • Menu
  • 00:00:00.000                             : en:00:00:00.000
  • 00:09:43.958                             : en:00:09:43.958
  • 00:21:23.491                             : en:00:21:23.491
  • 00:33:23.460                             : en:00:33:23.460
  • 00:41:33.157                             : en:00:41:33.157
  • 00:50:21.977                             : en:00:50:21.977
  • 00:58:56.032                             : en:00:58:56.032
  • 01:10:23.302                             : en:01:10:23.302
  • 01:20:20.399                             : en:01:20:20.399
  • 01:32:40.180                             : en:01:32:40.1802 ~/ b7 T& ]' h& l

) j" a. I8 x$ }复制代码
! ^+ _8 `8 ]- C0 I
* L3 ~$ s, B' f 柳暗花明/欢畅的仳离者 The.Gay.Divorcee.1934.720p.BluRay.x264-REGRET 4.38GB-2.jpg
, A" E# T: B4 a' f; C# K; ^# b) P& L

" ^+ _' Z" \3 }& ?  S* a" f' k. m: g$ d! r6 `) ]
! m* |  N0 n1 N( Q
回复

使用道具 举报

您需要登录后才可以回帖 登录 | 立即注册

本版积分规则

QQ|Archiver|手机版|小黑屋|中国高清网  |网站地图

GMT+8, 2018-11-21 22:29 , Processed in 0.137927 second(s), 41 queries .

Powered by HDchina X3.4

Copyright 2017-2018©HDchina.All right reserved

返回顶部 联系我们