你所知道的4K资源这里全部都有 4K电影 | 4K视频 | 4K壁纸 | 4K MV 怎么播放4K视频 | 4K电视演示片

教你玩转4K私人与家庭影院存储 NAS组装 | 黑群辉 家庭/影院Nas论坛

4K家庭影院信号源与视频设备知识 4K蓝光高清播放机 - 那个品牌好? 4K投影机论坛 | 4K电视机论坛

手把手教你搭建属于自己的家庭影院 4K家庭影院案例 | 家庭影院音频 4K家庭影院论坛

查看: 37|回复: 1

[爱情片] 佐伊 Zoe.2018.1080p.BluRay.REMUX.AVC.DTS-HR.5.1-FGT 27.21GB

[复制链接]

级别:资源管理组

UID
1
注册时间
2017-10-20
最后登录
2018-11-21
听众
0
收听
0
主题
72220
蓝光币
99015 枚
贡献
142028 点
发表于 2018-11-8 11:04:02 | 显示全部楼层 |阅读模式

佐伊 Zoe.2018.1080p.BluRay.REMUX.AVC.DTS-HR.5.1-FGT 27.21GB-1.jpg
◎译  名 佐伊
◎片  名 佐伊 Zoe
◎年  代 2018
◎国  家 美国
◎类  别 恋爱 / 科幻
◎语  言 英语
◎上映日期 2018-04-21(翠贝卡电影节) / 2018-07-20(美国)
◎IMDb评分  6.1/10 from 3,086 users
◎IMDb链接  http://www.imdb.com/title/tt6010628/
◎豆瓣评分 5.9/10 from 753 users
◎豆瓣链接 https://movie.douban.com/subject/26859006/
◎片  长 104分钟
◎导  演 德雷克·多雷穆斯
◎主  演 伊万·麦克格雷格
      蕾雅·赛杜
      拉什达·琼斯
      提奥·詹姆斯
      马修·格雷·古柏勒
      米兰达·奥图
      克里斯蒂娜·阿奎莱拉
      海伦·约翰斯
      凯尔·盖特豪斯
      斯蒂芬妮·吴
      崔斯坦·D·拉勒

◎简  介 

  两个在尝试室的工作同事,他们配合设想一项发现,该发现用以证实完善恋爱关系的存在。

  • Video
  • ID                                       : 1
  • Format                                   : AVC
  • Format/Info                              : Advanced Video Codec
  • Format profile                           : [email protected]
  • Format settings                          : CABAC / 4 Ref Frames
  • Format settings, CABAC                   : Yes
  • Format settings, ReFrames                : 4 frames
  • Codec ID                                 : V_MPEG4/ISO/AVC
  • Duration                                 : 1 h 44 min
  • Bit rate mode                            : Variable
  • Bit rate                                 : 33.8 Mb/s
  • Maximum bit rate                         : 39.0 Mb/s
  • Width                                    : 1 920 pixels
  • Height                                   : 1 080 pixels
  • Display aspect ratio                     : 16:9
  • Frame rate mode                          : Constant
  • Frame rate                               : 23.976 (24000/1001) FPS
  • Color space                              : YUV
  • Chroma subsampling                       : 4:2:0
  • Bit depth                                : 8 bits
  • Scan type                                : Progressive
  • Bits/(Pixel*Frame)                       : 0.680
  • Stream size                              : 24.6 GiB (90%)
  • Title                                    : Zoe.2018.1080p.BluRay.REMUX.AVC.DTS-HR.5.1-FGT
  • Language                                 : English
  • Default                                  : No
  • Forced                                   : No
  • Audio #1
  • ID                                       : 2
  • Format                                   : DTS XBR
  • Format/Info                              : Digital Theater Systems
  • Commercial name                          : DTS-HD High Resolution Audio
  • Codec ID                                 : A_DTS
  • Duration                                 : 1 h 44 min
  • Bit rate mode                            : Constant
  • Bit rate                                 : 2 046 kb/s
  • Channel(s)                               : 6 channels
  • Channel layout                           : C L R Ls Rs LFE
  • Sampling rate                            : 48.0 kHz
  • Frame rate                               : 93.750 FPS (512 SPF)
  • Bit depth                                : 24 bits
  • Compression mode                         : Lossy
  • Stream size                              : 1.49 GiB (5%)
  • Title                                    : Zoe.2018.1080p.BluRay.REMUX.AVC.DTS-HR.5.1-FGT
  • Language                                 : English
  • Default                                  : Yes
  • Forced                                   : No
  • Audio #2
  • ID                                       : 3
  • Format                                   : DTS
  • Format/Info                              : Digital Theater Systems
  • Codec ID                                 : A_DTS
  • Duration                                 : 1 h 44 min
  • Bit rate mode                            : Constant
  • Bit rate                                 : 1 509 kb/s
  • Channel(s)                               : 6 channels
  • Channel layout                           : C L R Ls Rs LFE
  • Sampling rate                            : 48.0 kHz
  • Frame rate                               : 93.750 FPS (512 SPF)
  • Bit depth                                : 24 bits
  • Compression mode                         : Lossy
  • Stream size                              : 1.10 GiB (4%)
  • Title                                    : Zoe.2018.1080p.BluRay.REMUX.AVC.DTS-HR.5.1-FGT
  • Language                                 : English
  • Default                                  : No
  • Forced                                   : No
  • Menu
  • 00:00:00.000                             : en:Chapter 01
  • 00:04:13.461                             : en:Chapter 02
  • 00:10:58.115                             : en:Chapter 03
  • 00:16:10.094                             : en:Chapter 04
  • 00:20:28.435                             : en:Chapter 05
  • 00:25:21.853                             : en:Chapter 06
  • 00:30:06.638                             : en:Chapter 07
  • 00:36:25.933                             : en:Chapter 08
  • 00:42:09.485                             : en:Chapter 09
  • 00:44:45.724                             : en:Chapter 10
  • 00:51:32.047                             : en:Chapter 11
  • 00:57:27.652                             : en:Chapter 12
  • 01:04:16.018                             : en:Chapter 13
  • 01:08:08.000                             : en:Chapter 14
  • 01:13:20.354                             : en:Chapter 15
  • 01:18:10.811                             : en:Chapter 16
  • 01:23:29.671                             : en:Chapter 17
  • 01:30:35.680                             : en:Chapter 18
  • 01:38:23.772                             : en:Chapter 19

复制代码

佐伊 Zoe.2018.1080p.BluRay.REMUX.AVC.DTS-HR.5.1-FGT 27.21GB-2.png 佐伊 Zoe.2018.1080p.BluRay.REMUX.AVC.DTS-HR.5.1-FGT 27.21GB-3.png 佐伊 Zoe.2018.1080p.BluRay.REMUX.AVC.DTS-HR.5.1-FGT 27.21GB-4.png





回复

使用道具 举报

级别:专业龙套 Lv.4

UID
4064
注册时间
2018-5-27
最后登录
2018-11-18
听众
3
收听
0
主题
0
蓝光币
-1 枚
贡献
0 点
发表于 5 天前 | 显示全部楼层
感谢分享!
回复

使用道具 举报

您需要登录后才可以回帖 登录 | 立即注册

本版积分规则

QQ|Archiver|手机版|小黑屋|中国高清网  |网站地图

GMT+8, 2018-11-21 22:09 , Processed in 0.119291 second(s), 41 queries .

Powered by HDchina X3.4

Copyright 2017-2018©HDchina.All right reserved

返回顶部 联系我们