你所知道的4K资源这里全部都有 4K电影 | 4K视频 | 4K壁纸 | 4K MV 怎么播放4K视频 | 4K电视演示片

教你玩转4K私人与家庭影院存储 NAS组装 | 黑群辉 家庭/影院Nas论坛

4K家庭影院信号源与视频设备知识 4K蓝光高清播放机 - 那个品牌好? 4K投影机论坛 | 4K电视机论坛

手把手教你搭建属于自己的家庭影院 4K家庭影院案例 | 家庭影院音频 4K家庭影院论坛

查看: 123|回复: 1

[爱情片] 佐伊 Zoe.2018.1080p.BluRay.REMUX.AVC.DTS-HR.5.1-FGT 27.21GB

[复制链接]

 成长值: 1040

级别:资源管理组

注册时间
2017-10-20
最后登录
2019-4-23
听众
0
收听
0
主题
76979
蓝光币
8527 枚
贡献
1287 点
发表于 2018-11-8 11:04:02 | 显示全部楼层 |阅读模式

佐伊 Zoe.2018.1080p.BluRay.REMUX.AVC.DTS-HR.5.1-FGT 27.21GB-1.jpg
◎译  名 佐伊
◎片  名 佐伊 Zoe
◎年  代 2018
◎国  家 美国
◎类  别 恋爱 / 科幻
◎语  言 英语
◎上映日期 2018-04-21(翠贝卡电影节) / 2018-07-20(美国)
◎IMDb评分  6.1/10 from 3,086 users
◎IMDb链接  http://www.imdb.com/title/tt6010628/
◎豆瓣评分 5.9/10 from 753 users
◎豆瓣链接 https://movie.douban.com/subject/26859006/
◎片  长 104分钟
◎导  演 德雷克·多雷穆斯
◎主  演 伊万·麦克格雷格
      蕾雅·赛杜
      拉什达·琼斯
      提奥·詹姆斯
      马修·格雷·古柏勒
      米兰达·奥图
      克里斯蒂娜·阿奎莱拉
      海伦·约翰斯
      凯尔·盖特豪斯
      斯蒂芬妮·吴
      崔斯坦·D·拉勒

◎简  介 

  两个在尝试室的工作同事,他们配合设想一项发现,该发现用以证实完善恋爱关系的存在。


  1. Video
  2. ID                                       : 1
  3. Format                                   : AVC
  4. Format/Info                              : Advanced Video Codec
  5. Format profile                           : [url=/cdn-cgi/l/email-protection][email protected][/url]
  6. Format settings                          : CABAC / 4 Ref Frames
  7. Format settings, CABAC                   : Yes
  8. Format settings, ReFrames                : 4 frames
  9. Codec ID                                 : V_MPEG4/ISO/AVC
  10. Duration                                 : 1 h 44 min
  11. Bit rate mode                            : Variable
  12. Bit rate                                 : 33.8 Mb/s
  13. Maximum bit rate                         : 39.0 Mb/s
  14. Width                                    : 1 920 pixels
  15. Height                                   : 1 080 pixels
  16. Display aspect ratio                     : 16:9
  17. Frame rate mode                          : Constant
  18. Frame rate                               : 23.976 (24000/1001) FPS
  19. Color space                              : YUV
  20. Chroma subsampling                       : 4:2:0
  21. Bit depth                                : 8 bits
  22. Scan type                                : Progressive
  23. Bits/(Pixel*Frame)                       : 0.680
  24. Stream size                              : 24.6 GiB (90%)
  25. Title                                    : Zoe.2018.1080p.BluRay.REMUX.AVC.DTS-HR.5.1-FGT
  26. Language                                 : English
  27. Default                                  : No
  28. Forced                                   : No

  29. Audio #1
  30. ID                                       : 2
  31. Format                                   : DTS XBR
  32. Format/Info                              : Digital Theater Systems
  33. Commercial name                          : DTS-HD High Resolution Audio
  34. Codec ID                                 : A_DTS
  35. Duration                                 : 1 h 44 min
  36. Bit rate mode                            : Constant
  37. Bit rate                                 : 2 046 kb/s
  38. Channel(s)                               : 6 channels
  39. Channel layout                           : C L R Ls Rs LFE
  40. Sampling rate                            : 48.0 kHz
  41. Frame rate                               : 93.750 FPS (512 SPF)
  42. Bit depth                                : 24 bits
  43. Compression mode                         : Lossy
  44. Stream size                              : 1.49 GiB (5%)
  45. Title                                    : Zoe.2018.1080p.BluRay.REMUX.AVC.DTS-HR.5.1-FGT
  46. Language                                 : English
  47. Default                                  : Yes
  48. Forced                                   : No

  49. Audio #2
  50. ID                                       : 3
  51. Format                                   : DTS
  52. Format/Info                              : Digital Theater Systems
  53. Codec ID                                 : A_DTS
  54. Duration                                 : 1 h 44 min
  55. Bit rate mode                            : Constant
  56. Bit rate                                 : 1 509 kb/s
  57. Channel(s)                               : 6 channels
  58. Channel layout                           : C L R Ls Rs LFE
  59. Sampling rate                            : 48.0 kHz
  60. Frame rate                               : 93.750 FPS (512 SPF)
  61. Bit depth                                : 24 bits
  62. Compression mode                         : Lossy
  63. Stream size                              : 1.10 GiB (4%)
  64. Title                                    : Zoe.2018.1080p.BluRay.REMUX.AVC.DTS-HR.5.1-FGT
  65. Language                                 : English
  66. Default                                  : No
  67. Forced                                   : No

  68. Menu
  69. 00:00:00.000                             : en:Chapter 01
  70. 00:04:13.461                             : en:Chapter 02
  71. 00:10:58.115                             : en:Chapter 03
  72. 00:16:10.094                             : en:Chapter 04
  73. 00:20:28.435                             : en:Chapter 05
  74. 00:25:21.853                             : en:Chapter 06
  75. 00:30:06.638                             : en:Chapter 07
  76. 00:36:25.933                             : en:Chapter 08
  77. 00:42:09.485                             : en:Chapter 09
  78. 00:44:45.724                             : en:Chapter 10
  79. 00:51:32.047                             : en:Chapter 11
  80. 00:57:27.652                             : en:Chapter 12
  81. 01:04:16.018                             : en:Chapter 13
  82. 01:08:08.000                             : en:Chapter 14
  83. 01:13:20.354                             : en:Chapter 15
  84. 01:18:10.811                             : en:Chapter 16
  85. 01:23:29.671                             : en:Chapter 17
  86. 01:30:35.680                             : en:Chapter 18
  87. 01:38:23.772                             : en:Chapter 19
复制代码

复制代码

佐伊 Zoe.2018.1080p.BluRay.REMUX.AVC.DTS-HR.5.1-FGT 27.21GB-2.png 佐伊 Zoe.2018.1080p.BluRay.REMUX.AVC.DTS-HR.5.1-FGT 27.21GB-3.png 佐伊 Zoe.2018.1080p.BluRay.REMUX.AVC.DTS-HR.5.1-FGT 27.21GB-4.png





回复

使用道具 举报

级别:荣升主角 Lv.5

注册时间
2018-5-27
最后登录
2019-4-23
听众
5
收听
0
主题
0
蓝光币
12 枚
贡献
0 点
发表于 2018-11-16 19:47:08 | 显示全部楼层
感谢分享!
回复

使用道具 举报

懒得打字嘛,点击右侧快捷回复 【右侧内容,后台自定义】
您需要登录后才可以回帖 登录 | 立即注册

本版积分规则

QQ|Archiver|手机版|小黑屋|中国高清网  |网站地图

GMT+8, 2019-4-23 18:17 , Processed in 0.117592 second(s), 41 queries .

Powered by HDchina X3.4

Copyright 2017-2018©HDchina.All right reserved

返回顶部 联系我们