你所知道的4K资源这里全部都有 4K电影 | 4K视频 | 4K壁纸 | 4K MV 怎么播放4K视频 | 4K电视演示片

教你玩转4K私人与家庭影院存储 NAS组装 | 黑群辉 家庭/影院Nas论坛

4K家庭影院信号源与视频设备知识 4K蓝光高清播放机 - 那个品牌好? 4K投影机论坛 | 4K电视机论坛

手把手教你搭建属于自己的家庭影院 4K家庭影院案例 | 家庭影院音频 4K家庭影院论坛

查看: 36|回复: 0

[惊悚片] 忏情记/我坦白 I.Confess.1953.1080p.BluRay.X264-AMIABLE 9.89GB

[复制链接]

级别:资源管理组

UID
1
注册时间
2017-10-20
最后登录
2018-11-21
听众
0
收听
0
主题
72220
蓝光币
99015 枚
贡献
142028 点
发表于 2018-11-8 11:00:36 | 显示全部楼层 |阅读模式

忏情记/我率直 I.Confess.1953.1080p.BluRay.X264-AMIABLE 9.89GB-1.jpg
◎译  名 忏情记 / 我率直 / Alfred Hitchcock's 'I Confess!'
◎片  名 忏情记 I Confess
◎年  代 1953
◎国  家 美国 / 加拿大
◎类  别 惊悚 / 犯罪
◎语  言 英语 / 法语 / 意大利语 / 德语
◎上映日期 1953-03-22
◎IMDb评分  7.3/10 from 16,697 users
◎IMDb链接  http://www.imdb.com/title/tt0045897/
◎豆瓣评分 7.8/10 from 1968 users
◎豆瓣链接 https://movie.douban.com/subject/1301229/
◎片  长 94分钟
◎导  演 阿尔弗雷德·希区柯克
◎主  演 蒙哥马利·克利夫特
      安妮·巴克斯特
      卡尔·莫尔登
      O.E. Hasse

◎简  介 

  屋子中倒着一具尸身,门帘还在颤抖,从窗户中看进来,一个神父样子的人仓促走远。在街角,他脱下外袍,暴露自己原本的衣服。他走进教堂,昏暗的灯光中见到一位神父,年轻的神父认出他是教堂管事凯勒,凯勒要求罗根神父为他反悔。在告解室,凯勒说出了自己谋财害死伊列斯特师长的经过……
  忏情记是电影大师希区考克最激烈、邪恶黑暗的故事,陈述心里心灵紊乱和外在身材的危险的故事。罗根的道德危机透过蒙哥马利强力精湛表演而扣民气弦。奥斯卡金像奖四次入围提名的蒙哥马利克里夫穿透民气的锋利双眼和寻思郁闷热情风迷了一切观众,他成为表演这个脚色的最好人选。奥斯卡得奖人安贝丝特和卡尔配合主演,担任事务关键人物和警方监识职员脚色,两人尽力为罗根洗脱凶杀案控告,却反而将他推入更深渊的圈套里。海瑟饰演教堂司事--真帮凶手--奥图凯勒成为希区考克式暴徒之一,表表演完全嘲讽毫无悔意的恶魔形象。
  影片部分在魁北克拍摄,首要地址特点是城市的旧传统,忏情记剧情渐渐成长到往最高点,真是使人难忘。实在的希区考克气概,你得认可这部电影会让你一向不竭回忆,没法忘记。
  忏情记是1902年的剧本,感遭到是取材自实在生活。从电影上映后这些年来,有几件关于本片主题的实在事务已经发生。希区考克晚年受过严酷耶稣教会的教育,致使他想要拍这样一部电影关于牧师必须立誓,对告解所听到的任何奥秘都需要缄舌闭口。

◎获奖情况 

  第6届戛纳电影节 (1953)
  主比赛单元 金棕榈奖(提名) 阿尔弗雷德·希区柯克

  • Video
  • ID                                       : 1
  • Format                                   : AVC
  • Format/Info                              : Advanced Video Codec
  • Format profile                           : [email protected]
  • Format settings, CABAC                   : Yes
  • Format settings, ReFrames                : 5 frames
  • Codec ID                                 : V_MPEG4/ISO/AVC
  • Duration                                 : 1h 34mn
  • Bit rate                                 : 13.4 Mbps
  • Width                                    : 1 472 pixels
  • Height                                   : 1 080 pixels
  • Display aspect ratio                     : 4:3
  • Frame rate mode                          : Constant
  • Frame rate                               : 23.976 (24000/1001) fps
  • Color space                              : YUV
  • Chroma subsampling                       : 4:2:0
  • Bit depth                                : 8 bits
  • Scan type                                : Progressive
  • Bits/(Pixel*Frame)                       : 0.351
  • Stream size                              : 8.65 GiB (88%)
  • Writing library                          : x264 core 148 r2665 a01e339
  • Encoding settings                        : cabac=1 / ref=5 / deblock=1:-3:-3 / analyse=0x3:0x113 / me=umh / subme=8 / psy=1 / psy_rd=1.15:0.00 / mixed_ref=1 / me_range=32 / chroma_me=1 / trellis=1 / 8x8dct=1 / cqm=0 / deadzone=21,11 / fast_pskip=1 / chroma_qp_offset=-2 / threads=24 / lookahead_threads=4 / sliced_threads=0 / nr=0 / decimate=1 / interlaced=0 / bluray_compat=0 / constrained_intra=0 / bframes=3 / b_pyramid=2 / b_adapt=2 / b_bias=0 / direct=3 / weightb=1 / open_gop=0 / weightp=2 / keyint=240 / keyint_min=24 / scenecut=40 / intra_refresh=0 / rc_lookahead=50 / rc=2pass / mbtree=1 / bitrate=13375 / ratetol=1.0 / qcomp=0.60 / qpmin=0 / qpmax=69 / qpstep=4 / cplxblur=20.0 / qblur=0.5 / ip_ratio=1.40 / aq=3:0.80
  • Language                                 : English
  • Default                                  : Yes
  • Forced                                   : No
  • Statistics Tags Issue                    : no_variable_data 1970-01-01 00:00:00 / no_variable_data 2010-02-22 21:41:29
  • FromStats_BitRate                        : 13375081
  • FromStats_Duration                       : 01:34:37.214000000
  • FromStats_FrameCount                     : 136117
  • FromStats_StreamSize                     : 9491650240
  • Audio
  • ID                                       : 2
  • Format                                   : DTS
  • Format/Info                              : Digital Theater Systems
  • Mode                                     : 16
  • Format settings, Endianness              : Big
  • Codec ID                                 : A_DTS
  • Duration                                 : 1h 34mn
  • Bit rate mode                            : Constant
  • Bit rate                                 : 1 509 Kbps
  • Channel(s)                               : 2 channels
  • Channel positions                        : Front: L R
  • Sampling rate                            : 48.0 KHz
  • Frame rate                               : 93.750 fps (512 spf)
  • Bit depth                                : 24 bits
  • Compression mode                         : Lossy
  • Stream size                              : 1 021 MiB (10%)
  • Language                                 : English
  • Default                                  : Yes
  • Forced                                   : No
  • Statistics Tags Issue                    : no_variable_data 1970-01-01 00:00:00 / no_variable_data 2010-02-22 21:41:29
  • FromStats_BitRate                        : 1509000
  • FromStats_Duration                       : 01:34:37.216000000
  • FromStats_FrameCount                     : 532239
  • FromStats_StreamSize                     : 1070864868
  • Text #1
  • ID                                       : 3
  • Format                                   : UTF-8
  • Codec ID                                 : S_TEXT/UTF8
  • Codec ID/Info                            : UTF-8 Plain Text
  • Language                                 : English
  • Default                                  : No
  • Forced                                   : No
  • Statistics Tags Issue                    : no_variable_data 1970-01-01 00:00:00 / no_variable_data 2010-02-22 21:41:29
  • FromStats_BitRate                        : 68
  • FromStats_Duration                       : 01:31:16.303000000
  • FromStats_FrameCount                     : 1272
  • FromStats_StreamSize                     : 47204
  • Text #2
  • ID                                       : 4
  • Format                                   : UTF-8
  • Codec ID                                 : S_TEXT/UTF8
  • Codec ID/Info                            : UTF-8 Plain Text
  • Title                                    : SDH
  • Language                                 : English
  • Default                                  : No
  • Forced                                   : No
  • Statistics Tags Issue                    : no_variable_data 1970-01-01 00:00:00 / no_variable_data 2010-02-22 21:41:29
  • FromStats_BitRate                        : 69
  • FromStats_Duration                       : 01:34:31.665000000
  • FromStats_FrameCount                     : 1335
  • FromStats_StreamSize                     : 49082
  • Menu
  • 00:00:00.000                             : en:00:00:00.000
  • 00:02:01.997                             : en:00:02:01.997
  • 00:05:12.229                             : en:00:05:12.229
  • 00:08:20.709                             : en:00:08:20.709
  • 00:12:21.991                             : en:00:12:21.991
  • 00:15:55.580                             : en:00:15:55.580
  • 00:19:04.977                             : en:00:19:04.977
  • 00:25:02.209                             : en:00:25:02.209
  • 00:31:18.376                             : en:00:31:18.376
  • 00:36:21.179                             : en:00:36:21.179
  • 00:39:50.763                             : en:00:39:50.763
  • 00:46:10.226                             : en:00:46:10.226
  • 00:48:19.313                             : en:00:48:19.313
  • 00:52:36.278                             : en:00:52:36.278
  • 00:56:18.667                             : en:00:56:18.667
  • 00:59:36.448                             : en:00:59:36.448
  • 01:02:22.197                             : en:01:02:22.197
  • 01:05:40.019                             : en:01:05:40.019
  • 01:10:01.614                             : en:01:10:01.614
  • 01:14:12.698                             : en:01:14:12.698
  • 01:20:53.057                             : en:01:20:53.057
  • 01:24:04.331                             : en:01:24:04.331
  • 01:26:03.909                             : en:01:26:03.909
  • 01:29:44.462                             : en:01:29:44.462
  • 01:33:43.034                             : en:01:33:43.034

复制代码

忏情记/我率直 I.Confess.1953.1080p.BluRay.X264-AMIABLE 9.89GB-2.jpg





回复

使用道具 举报

您需要登录后才可以回帖 登录 | 立即注册

本版积分规则

QQ|Archiver|手机版|小黑屋|中国高清网  |网站地图

GMT+8, 2018-11-21 21:35 , Processed in 0.194668 second(s), 42 queries .

Powered by HDchina X3.4

Copyright 2017-2018©HDchina.All right reserved

返回顶部 联系我们