你所知道的4K资源这里全部都有 4K电影 | 4K视频 | 4K壁纸 | 4K MV 怎么播放4K视频 | 4K电视演示片

教你玩转4K私人与家庭影院存储 NAS组装 | 黑群辉 家庭/影院Nas论坛

4K家庭影院信号源与视频设备知识 4K蓝光高清播放机 - 那个品牌好? 4K投影机论坛 | 4K电视机论坛

手把手教你搭建属于自己的家庭影院 4K家庭影院案例 | 家庭影院音频 4K家庭影院论坛

查看: 61|回复: 1

[纪录片] 教皇方济各:言出必行的人/教宗知行錄 Pope.Francis.A.Man.of.His.Word.2018.1080p.BluRay.REMUX.AVC.DTS-HD.MA.5.1-FGT 27.32GB

[复制链接]

 成长值: 120

级别:资源管理组

UID
1
注册时间
2017-10-20
最后登录
2019-1-21
听众
0
收听
0
主题
73918
蓝光币
116406 枚
贡献
143727 点
发表于 2018-11-8 09:35:11 | 显示全部楼层 |阅读模式

教皇方济各:言出必行的人/教宗知行錄 Pope.Francis.A.Man.of.His.Word.2018.1080p.BluRay.REMUX.AVC.DTS-HD.MA.5.1-FGT 27.32GB-1.jpg
◎译  名 教皇方济各:言出必行的人 / 教宗知行錄(港) / Papa Francesco - Un uomo di parola / 教宗方濟各:信守諾言的人(台)
◎片  名 教皇方济各:言出必行的人 Pope Francis: A Man of His Word
◎年  代 2018
◎国  家 美国
◎类  别 记载片
◎语  言 英语
◎上映日期 2018-05-13(戛纳电影节) / 2018-05-18(美国)
◎IMDb评分  5.5/10 from 844 users
◎IMDb链接  http://www.imdb.com/title/tt6915100/
◎豆瓣评分 7.4/10 from 134 users
◎豆瓣链接 https://movie.douban.com/subject/27056532/
◎片  长 无片长信息
◎导  演 维姆·文德斯
◎主  演 Pope Francis

◎简  介 

  记载片围绕教皇方济各的履历展开。从他对贫民和财富分歧等点切入,到他对情况题目和社会正义的介入等一系列事务来展现教皇方济各的各个方面。影片由焦点影业打造。


  1. Video
  2. ID                                       : 1
  3. Format                                   : AVC
  4. Format/Info                              : Advanced Video Codec
  5. Format profile                           : [url=/cdn-cgi/l/email-protection][email protected][/url]
  6. Format settings                          : CABAC / 4 Ref Frames
  7. Format settings, CABAC                   : Yes
  8. Format settings, ReFrames                : 4 frames
  9. Format settings, GOP                     : M=3, N=12
  10. Codec ID                                 : V_MPEG4/ISO/AVC
  11. Duration                                 : 1 h 36 min
  12. Bit rate mode                            : Variable
  13. Bit rate                                 : 30.1 Mb/s
  14. Maximum bit rate                         : 33.0 Mb/s
  15. Width                                    : 1 920 pixels
  16. Height                                   : 1 080 pixels
  17. Display aspect ratio                     : 16:9
  18. Frame rate mode                          : Constant
  19. Frame rate                               : 23.976 (24000/1001) FPS
  20. Color space                              : YUV
  21. Chroma subsampling                       : 4:2:0
  22. Bit depth                                : 8 bits
  23. Scan type                                : Progressive
  24. Bits/(Pixel*Frame)                       : 0.605
  25. Stream size                              : 20.2 GiB (74%)
  26. Title                                    : Pope.Francis.A.Man.of.His.Word.2018.1080p.BluRay.REMUX.AVC.DTS-HD.MA.5.1-FGT
  27. Language                                 : English
  28. Default                                  : No
  29. Forced                                   : No

  30. Audio #1
  31. ID                                       : 2
  32. Format                                   : DTS XLL
  33. Format/Info                              : Digital Theater Systems
  34. Commercial name                          : DTS-HD Master Audio
  35. Codec ID                                 : A_DTS
  36. Duration                                 : 1 h 36 min
  37. Bit rate mode                            : Variable
  38. Bit rate                                 : 3 635 kb/s
  39. Channel(s)                               : 6 channels
  40. Channel layout                           : C L R Ls Rs LFE
  41. Sampling rate                            : 48.0 kHz
  42. Frame rate                               : 93.750 FPS (512 SPF)
  43. Bit depth                                : 24 bits
  44. Compression mode                         : Lossless
  45. Stream size                              : 2.44 GiB (9%)
  46. Title                                    : Pope.Francis.A.Man.of.His.Word.2018.1080p.BluRay.REMUX.AVC.DTS-HD.MA.5.1-FGT
  47. Language                                 : English
  48. Default                                  : Yes
  49. Forced                                   : No

  50. Audio #2
  51. ID                                       : 3
  52. Format                                   : DTS
  53. Format/Info                              : Digital Theater Systems
  54. Codec ID                                 : A_DTS
  55. Duration                                 : 1 h 36 min
  56. Bit rate mode                            : Constant
  57. Bit rate                                 : 1 509 kb/s
  58. Channel(s)                               : 6 channels
  59. Channel layout                           : C L R Ls Rs LFE
  60. Sampling rate                            : 48.0 kHz
  61. Frame rate                               : 93.750 FPS (512 SPF)
  62. Bit depth                                : 24 bits
  63. Compression mode                         : Lossy
  64. Stream size                              : 1.01 GiB (4%)
  65. Title                                    : Pope.Francis.A.Man.of.His.Word.2018.1080p.BluRay.REMUX.AVC.DTS-HD.MA.5.1-FGT
  66. Language                                 : English
  67. Default                                  : No
  68. Forced                                   : No

  69. Audio #3
  70. ID                                       : 4
  71. Format                                   : DTS
  72. Format/Info                              : Digital Theater Systems
  73. Codec ID                                 : A_DTS
  74. Duration                                 : 1 h 36 min
  75. Bit rate mode                            : Constant
  76. Bit rate                                 : 768 kb/s
  77. Channel(s)                               : 6 channels
  78. Channel layout                           : C L R Ls Rs LFE
  79. Sampling rate                            : 48.0 kHz
  80. Frame rate                               : 93.750 FPS (512 SPF)
  81. Bit depth                                : 24 bits
  82. Compression mode                         : Lossy
  83. Stream size                              : 529 MiB (2%)
  84. Title                                    : Pope.Francis.A.Man.of.His.Word.2018.1080p.BluRay.REMUX.AVC.DTS-HD.MA.5.1-FGT
  85. Language                                 : French
  86. Default                                  : No
  87. Forced                                   : No

  88. Audio #4
  89. ID                                       : 5
  90. Format                                   : DTS
  91. Format/Info                              : Digital Theater Systems
  92. Codec ID                                 : A_DTS
  93. Duration                                 : 1 h 36 min
  94. Bit rate mode                            : Constant
  95. Bit rate                                 : 768 kb/s
  96. Channel(s)                               : 6 channels
  97. Channel layout                           : C L R Ls Rs LFE
  98. Sampling rate                            : 48.0 kHz
  99. Frame rate                               : 93.750 FPS (512 SPF)
  100. Bit depth                                : 24 bits
  101. Compression mode                         : Lossy
  102. Stream size                              : 529 MiB (2%)
  103. Title                                    : Pope.Francis.A.Man.of.His.Word.2018.1080p.BluRay.REMUX.AVC.DTS-HD.MA.5.1-FGT
  104. Language                                 : French
  105. Default                                  : No
  106. Forced                                   : No

  107. Audio #5
  108. ID                                       : 6
  109. Format                                   : DTS
  110. Format/Info                              : Digital Theater Systems
  111. Codec ID                                 : A_DTS
  112. Duration                                 : 1 h 36 min
  113. Bit rate mode                            : Constant
  114. Bit rate                                 : 768 kb/s
  115. Channel(s)                               : 6 channels
  116. Channel layout                           : C L R Ls Rs LFE
  117. Sampling rate                            : 48.0 kHz
  118. Frame rate                               : 93.750 FPS (512 SPF)
  119. Bit depth                                : 24 bits
  120. Compression mode                         : Lossy
  121. Stream size                              : 529 MiB (2%)
  122. Title                                    : Pope.Francis.A.Man.of.His.Word.2018.1080p.BluRay.REMUX.AVC.DTS-HD.MA.5.1-FGT
  123. Language                                 : German
  124. Default                                  : No
  125. Forced                                   : No

  126. Audio #6
  127. ID                                       : 7
  128. Format                                   : DTS
  129. Format/Info                              : Digital Theater Systems
  130. Codec ID                                 : A_DTS
  131. Duration                                 : 1 h 36 min
  132. Bit rate mode                            : Constant
  133. Bit rate                                 : 768 kb/s
  134. Channel(s)                               : 6 channels
  135. Channel layout                           : C L R Ls Rs LFE
  136. Sampling rate                            : 48.0 kHz
  137. Frame rate                               : 93.750 FPS (512 SPF)
  138. Bit depth                                : 24 bits
  139. Compression mode                         : Lossy
  140. Stream size                              : 529 MiB (2%)
  141. Title                                    : Pope.Francis.A.Man.of.His.Word.2018.1080p.BluRay.REMUX.AVC.DTS-HD.MA.5.1-FGT
  142. Language                                 : German
  143. Default                                  : No
  144. Forced                                   : No

  145. Audio #7
  146. ID                                       : 8
  147. Format                                   : DTS
  148. Format/Info                              : Digital Theater Systems
  149. Codec ID                                 : A_DTS
  150. Duration                                 : 1 h 36 min
  151. Bit rate mode                            : Constant
  152. Bit rate                                 : 768 kb/s
  153. Channel(s)                               : 6 channels
  154. Channel layout                           : C L R Ls Rs LFE
  155. Sampling rate                            : 48.0 kHz
  156. Frame rate                               : 93.750 FPS (512 SPF)
  157. Bit depth                                : 24 bits
  158. Compression mode                         : Lossy
  159. Stream size                              : 529 MiB (2%)
  160. Title                                    : Pope.Francis.A.Man.of.His.Word.2018.1080p.BluRay.REMUX.AVC.DTS-HD.MA.5.1-FGT
  161. Language                                 : Italian
  162. Default                                  : No
  163. Forced                                   : No

  164. Audio #8
  165. ID                                       : 9
  166. Format                                   : DTS
  167. Format/Info                              : Digital Theater Systems
  168. Codec ID                                 : A_DTS
  169. Duration                                 : 1 h 36 min
  170. Bit rate mode                            : Constant
  171. Bit rate                                 : 768 kb/s
  172. Channel(s)                               : 6 channels
  173. Channel layout                           : C L R Ls Rs LFE
  174. Sampling rate                            : 48.0 kHz
  175. Frame rate                               : 93.750 FPS (512 SPF)
  176. Bit depth                                : 24 bits
  177. Compression mode                         : Lossy
  178. Stream size                              : 529 MiB (2%)
  179. Title                                    : Pope.Francis.A.Man.of.His.Word.2018.1080p.BluRay.REMUX.AVC.DTS-HD.MA.5.1-FGT
  180. Language                                 : Spanish
  181. Default                                  : No
  182. Forced                                   : No

  183. Audio #9
  184. ID                                       : 10
  185. Format                                   : AC-3
  186. Format/Info                              : Audio Coding 3
  187. Commercial name                          : Dolby Digital
  188. Codec ID                                 : A_AC3
  189. Duration                                 : 1 h 36 min
  190. Bit rate mode                            : Constant
  191. Bit rate                                 : 192 kb/s
  192. Channel(s)                               : 2 channels
  193. Channel layout                           : L R
  194. Sampling rate                            : 48.0 kHz
  195. Frame rate                               : 31.250 FPS (1536 SPF)
  196. Bit depth                                : 16 bits
  197. Compression mode                         : Lossy
  198. Stream size                              : 132 MiB (0%)
  199. Title                                    : Pope.Francis.A.Man.of.His.Word.2018.1080p.BluRay.REMUX.AVC.DTS-HD.MA.5.1-FGT
  200. Language                                 : English
  201. Service kind                             : Complete Main
  202. Default                                  : No
  203. Forced                                   : No

  204. Audio #10
  205. ID                                       : 11
  206. Format                                   : AC-3
  207. Format/Info                              : Audio Coding 3
  208. Commercial name                          : Dolby Digital
  209. Codec ID                                 : A_AC3
  210. Duration                                 : 1 h 36 min
  211. Bit rate mode                            : Constant
  212. Bit rate                                 : 192 kb/s
  213. Channel(s)                               : 2 channels
  214. Channel layout                           : L R
  215. Sampling rate                            : 48.0 kHz
  216. Frame rate                               : 31.250 FPS (1536 SPF)
  217. Bit depth                                : 16 bits
  218. Compression mode                         : Lossy
  219. Stream size                              : 132 MiB (0%)
  220. Title                                    : Pope.Francis.A.Man.of.His.Word.2018.1080p.BluRay.REMUX.AVC.DTS-HD.MA.5.1-FGT
  221. Language                                 : French
  222. Service kind                             : Complete Main
  223. Default                                  : No
  224. Forced                                   : No

  225. Audio #11
  226. ID                                       : 12
  227. Format                                   : AC-3
  228. Format/Info                              : Audio Coding 3
  229. Commercial name                          : Dolby Digital
  230. Codec ID                                 : A_AC3
  231. Duration                                 : 1 h 36 min
  232. Bit rate mode                            : Constant
  233. Bit rate                                 : 192 kb/s
  234. Channel(s)                               : 2 channels
  235. Channel layout                           : L R
  236. Sampling rate                            : 48.0 kHz
  237. Frame rate                               : 31.250 FPS (1536 SPF)
  238. Bit depth                                : 16 bits
  239. Compression mode                         : Lossy
  240. Stream size                              : 132 MiB (0%)
  241. Title                                    : Pope.Francis.A.Man.of.His.Word.2018.1080p.BluRay.REMUX.AVC.DTS-HD.MA.5.1-FGT
  242. Language                                 : German
  243. Service kind                             : Complete Main
  244. Default                                  : No
  245. Forced                                   : No

  246. Text #1
  247. ID                                       : 13
  248. Format                                   : PGS
  249. Muxing mode                              : zlib
  250. Codec ID                                 : S_HDMV/PGS
  251. Codec ID/Info                            : Picture based subtitle format used on BDs/HD-DVDs
  252. Duration                                 : 1 h 35 min
  253. Bit rate                                 : 36.9 kb/s
  254. Count of elements                        : 2589
  255. Stream size                              : 25.2 MiB (0%)
  256. Title                                    : English-PGS
  257. Language                                 : English
  258. Default                                  : Yes
  259. Forced                                   : No

  260. Text #2
  261. ID                                       : 14
  262. Format                                   : PGS
  263. Muxing mode                              : zlib
  264. Codec ID                                 : S_HDMV/PGS
  265. Codec ID/Info                            : Picture based subtitle format used on BDs/HD-DVDs
  266. Duration                                 : 1 h 35 min
  267. Bit rate                                 : 36.9 kb/s
  268. Count of elements                        : 2426
  269. Stream size                              : 25.2 MiB (0%)
  270. Title                                    : French-PGS
  271. Language                                 : French
  272. Default                                  : No
  273. Forced                                   : No

  274. Text #3
  275. ID                                       : 15
  276. Format                                   : PGS
  277. Muxing mode                              : zlib
  278. Codec ID                                 : S_HDMV/PGS
  279. Codec ID/Info                            : Picture based subtitle format used on BDs/HD-DVDs
  280. Duration                                 : 1 h 35 min
  281. Bit rate                                 : 36.6 kb/s
  282. Count of elements                        : 2340
  283. Stream size                              : 24.9 MiB (0%)
  284. Title                                    : French-PGS
  285. Language                                 : French
  286. Default                                  : No
  287. Forced                                   : No

  288. Text #4
  289. ID                                       : 16
  290. Format                                   : PGS
  291. Muxing mode                              : zlib
  292. Codec ID                                 : S_HDMV/PGS
  293. Codec ID/Info                            : Picture based subtitle format used on BDs/HD-DVDs
  294. Duration                                 : 1 h 35 min
  295. Bit rate                                 : 39.8 kb/s
  296. Count of elements                        : 2330
  297. Stream size                              : 27.1 MiB (0%)
  298. Title                                    : German-PGS
  299. Language                                 : German
  300. Default                                  : No
  301. Forced                                   : No

  302. Text #5
  303. ID                                       : 17
  304. Format                                   : PGS
  305. Muxing mode                              : zlib
  306. Codec ID                                 : S_HDMV/PGS
  307. Codec ID/Info                            : Picture based subtitle format used on BDs/HD-DVDs
  308. Duration                                 : 1 h 34 min
  309. Bit rate                                 : 27.4 kb/s
  310. Count of elements                        : 1898
  311. Stream size                              : 18.5 MiB (0%)
  312. Title                                    : Italian-PGS
  313. Language                                 : Italian
  314. Default                                  : No
  315. Forced                                   : No

  316. Text #6
  317. ID                                       : 18
  318. Format                                   : PGS
  319. Muxing mode                              : zlib
  320. Codec ID                                 : S_HDMV/PGS
  321. Codec ID/Info                            : Picture based subtitle format used on BDs/HD-DVDs
  322. Duration                                 : 1 h 34 min
  323. Bit rate                                 : 19.0 kb/s
  324. Count of elements                        : 1167
  325. Stream size                              : 12.8 MiB (0%)
  326. Title                                    : Spanish-PGS
  327. Language                                 : Spanish
  328. Default                                  : No
  329. Forced                                   : No

  330. Text #7
  331. ID                                       : 19
  332. Format                                   : PGS
  333. Muxing mode                              : zlib
  334. Codec ID                                 : S_HDMV/PGS
  335. Codec ID/Info                            : Picture based subtitle format used on BDs/HD-DVDs
  336. Duration                                 : 1 h 34 min
  337. Bit rate                                 : 36.4 kb/s
  338. Count of elements                        : 2455
  339. Stream size                              : 24.6 MiB (0%)
  340. Title                                    : Dutch-PGS
  341. Language                                 : Dutch
  342. Default                                  : No
  343. Forced                                   : No

  344. Text #8
  345. ID                                       : 20
  346. Format                                   : PGS
  347. Muxing mode                              : zlib
  348. Codec ID                                 : S_HDMV/PGS
  349. Codec ID/Info                            : Picture based subtitle format used on BDs/HD-DVDs
  350. Duration                                 : 1 h 34 min
  351. Bit rate                                 : 33.3 kb/s
  352. Count of elements                        : 2454
  353. Stream size                              : 22.5 MiB (0%)
  354. Title                                    : Danish-PGS
  355. Language                                 : Danish
  356. Default                                  : No
  357. Forced                                   : No

  358. Text #9
  359. ID                                       : 21
  360. Format                                   : PGS
  361. Muxing mode                              : zlib
  362. Codec ID                                 : S_HDMV/PGS
  363. Codec ID/Info                            : Picture based subtitle format used on BDs/HD-DVDs
  364. Duration                                 : 1 h 34 min
  365. Bit rate                                 : 35.8 kb/s
  366. Count of elements                        : 2454
  367. Stream size                              : 24.2 MiB (0%)
  368. Title                                    : Finnish-PGS
  369. Language                                 : Finnish
  370. Default                                  : No
  371. Forced                                   : No

  372. Text #10
  373. ID                                       : 22
  374. Format                                   : PGS
  375. Muxing mode                              : zlib
  376. Codec ID                                 : S_HDMV/PGS
  377. Codec ID/Info                            : Picture based subtitle format used on BDs/HD-DVDs
  378. Duration                                 : 1 h 34 min
  379. Bit rate                                 : 33.2 kb/s
  380. Count of elements                        : 2455
  381. Stream size                              : 22.4 MiB (0%)
  382. Title                                    : Norwegian-PGS
  383. Language                                 : Norwegian
  384. Default                                  : No
  385. Forced                                   : No

  386. Text #11
  387. ID                                       : 23
  388. Format                                   : PGS
  389. Muxing mode                              : zlib
  390. Codec ID                                 : S_HDMV/PGS
  391. Codec ID/Info                            : Picture based subtitle format used on BDs/HD-DVDs
  392. Duration                                 : 1 h 34 min
  393. Bit rate                                 : 34.3 kb/s
  394. Count of elements                        : 2450
  395. Stream size                              : 23.2 MiB (0%)
  396. Title                                    : Swedish-PGS
  397. Language                                 : Swedish
  398. Default                                  : No
  399. Forced                                   : No

  400. Text #12
  401. ID                                       : 24
  402. Format                                   : PGS
  403. Muxing mode                              : zlib
  404. Codec ID                                 : S_HDMV/PGS
  405. Codec ID/Info                            : Picture based subtitle format used on BDs/HD-DVDs
  406. Duration                                 : 1 h 34 min
  407. Bit rate                                 : 35.2 kb/s
  408. Count of elements                        : 2461
  409. Stream size                              : 23.8 MiB (0%)
  410. Title                                    : Portuguese-PGS
  411. Language                                 : Portuguese
  412. Default                                  : No
  413. Forced                                   : No

  414. Text #13
  415. ID                                       : 25
  416. Format                                   : PGS
  417. Muxing mode                              : zlib
  418. Codec ID                                 : S_HDMV/PGS
  419. Codec ID/Info                            : Picture based subtitle format used on BDs/HD-DVDs
  420. Duration                                 : 1 h 34 min
  421. Bit rate                                 : 29.6 kb/s
  422. Count of elements                        : 2459
  423. Stream size                              : 20.0 MiB (0%)
  424. Title                                    : Hindi-PGS
  425. Language                                 : Hindi
  426. Default                                  : No
  427. Forced                                   : No

  428. Text #14
  429. ID                                       : 26
  430. Format                                   : PGS
  431. Muxing mode                              : zlib
  432. Codec ID                                 : S_HDMV/PGS
  433. Codec ID/Info                            : Picture based subtitle format used on BDs/HD-DVDs
  434. Duration                                 : 1 h 34 min
  435. Bit rate                                 : 17.4 kb/s
  436. Count of elements                        : 2459
  437. Stream size                              : 11.8 MiB (0%)
  438. Title                                    : Arabic-PGS
  439. Language                                 : Arabic
  440. Default                                  : No
  441. Forced                                   : No

  442. Text #15
  443. ID                                       : 27
  444. Format                                   : PGS
  445. Muxing mode                              : zlib
  446. Codec ID                                 : S_HDMV/PGS
  447. Codec ID/Info                            : Picture based subtitle format used on BDs/HD-DVDs
  448. Duration                                 : 1 h 34 min
  449. Bit rate                                 : 34.5 kb/s
  450. Count of elements                        : 2459
  451. Stream size                              : 23.3 MiB (0%)
  452. Title                                    : Icelandic-PGS
  453. Language                                 : Icelandic
  454. Default                                  : No
  455. Forced                                   : No

  456. Text #16
  457. ID                                       : 28
  458. Format                                   : PGS
  459. Muxing mode                              : zlib
  460. Codec ID                                 : S_HDMV/PGS
  461. Codec ID/Info                            : Picture based subtitle format used on BDs/HD-DVDs
  462. Duration                                 : 1 h 26 min
  463. Bit rate                                 : 23.5 kb/s
  464. Count of elements                        : 1982
  465. Stream size                              : 14.6 MiB (0%)
  466. Title                                    : English-FORCED-PGS
  467. Language                                 : English
  468. Default                                  : No
  469. Forced                                   : No

  470. Text #17
  471. ID                                       : 29
  472. Format                                   : PGS
  473. Muxing mode                              : zlib
  474. Codec ID                                 : S_HDMV/PGS
  475. Codec ID/Info                            : Picture based subtitle format used on BDs/HD-DVDs
  476. Duration                                 : 1 h 35 min
  477. Bit rate                                 : 29.8 kb/s
  478. Count of elements                        : 2042
  479. Stream size                              : 20.3 MiB (0%)
  480. Title                                    : French-FORCED-PGS
  481. Language                                 : French
  482. Default                                  : No
  483. Forced                                   : No

  484. Text #18
  485. ID                                       : 30
  486. Format                                   : PGS
  487. Muxing mode                              : zlib
  488. Codec ID                                 : S_HDMV/PGS
  489. Codec ID/Info                            : Picture based subtitle format used on BDs/HD-DVDs
  490. Duration                                 : 1 h 35 min
  491. Bit rate                                 : 2 227 b/s
  492. Count of elements                        : 109
  493. Stream size                              : 1.52 MiB (0%)
  494. Title                                    : French-FORCED-PGS
  495. Language                                 : French
  496. Default                                  : No
  497. Forced                                   : No

  498. Text #19
  499. ID                                       : 31
  500. Format                                   : PGS
  501. Muxing mode                              : zlib
  502. Codec ID                                 : S_HDMV/PGS
  503. Codec ID/Info                            : Picture based subtitle format used on BDs/HD-DVDs
  504. Duration                                 : 1 h 30 min
  505. Bit rate                                 : 32.4 kb/s
  506. Count of elements                        : 1798
  507. Stream size                              : 21.0 MiB (0%)
  508. Title                                    : German-FORCED-PGS
  509. Language                                 : German
  510. Default                                  : No
  511. Forced                                   : No

  512. Text #20
  513. ID                                       : 32
  514. Format                                   : PGS
  515. Muxing mode                              : zlib
  516. Codec ID                                 : S_HDMV/PGS
  517. Codec ID/Info                            : Picture based subtitle format used on BDs/HD-DVDs
  518. Duration                                 : 1 h 29 min
  519. Bit rate                                 : 377 b/s
  520. Count of elements                        : 24
  521. Stream size                              : 247 KiB (0%)
  522. Title                                    : German-FORCED-PGS
  523. Language                                 : German
  524. Default                                  : No
  525. Forced                                   : No

  526. Text #21
  527. ID                                       : 33
  528. Format                                   : PGS
  529. Muxing mode                              : zlib
  530. Codec ID                                 : S_HDMV/PGS
  531. Codec ID/Info                            : Picture based subtitle format used on BDs/HD-DVDs
  532. Duration                                 : 1 h 30 min
  533. Bit rate                                 : 32.4 kb/s
  534. Count of elements                        : 1798
  535. Stream size                              : 21.0 MiB (0%)
  536. Title                                    : German-FORCED-PGS
  537. Language                                 : German
  538. Default                                  : No
  539. Forced                                   : No

  540. Text #22
  541. ID                                       : 34
  542. Format                                   : PGS
  543. Muxing mode                              : zlib
  544. Codec ID                                 : S_HDMV/PGS
  545. Codec ID/Info                            : Picture based subtitle format used on BDs/HD-DVDs
  546. Duration                                 : 1 h 30 min
  547. Bit rate                                 : 21.2 kb/s
  548. Count of elements                        : 1534
  549. Stream size                              : 13.8 MiB (0%)
  550. Title                                    : Italian-FORCED-PGS
  551. Language                                 : Italian
  552. Default                                  : No
  553. Forced                                   : No

  554. Text #23
  555. ID                                       : 35
  556. Format                                   : PGS
  557. Muxing mode                              : zlib
  558. Codec ID                                 : S_HDMV/PGS
  559. Codec ID/Info                            : Picture based subtitle format used on BDs/HD-DVDs
  560. Duration                                 : 1 h 30 min
  561. Bit rate                                 : 1 356 b/s
  562. Count of elements                        : 61
  563. Stream size                              : 902 KiB (0%)
  564. Title                                    : Spanish-FORCED-PGS
  565. Language                                 : Spanish
  566. Default                                  : No
  567. Forced                                   : No

  568. Menu
  569. 00:00:00.000                             : en:Chapter 01
  570. 00:05:23.740                             : en:Chapter 02
  571. 00:11:03.746                             : en:Chapter 03
  572. 00:15:36.477                             : en:Chapter 04
  573. 00:20:58.131                             : en:Chapter 05
  574. 00:25:20.477                             : en:Chapter 06
  575. 00:28:57.110                             : en:Chapter 07
  576. 00:32:41.042                             : en:Chapter 08
  577. 00:37:16.817                             : en:Chapter 09
  578. 00:41:31.447                             : en:Chapter 10
  579. 00:46:37.252                             : en:Chapter 11
  580. 00:53:53.855                             : en:Chapter 12
  581. 00:59:20.390                             : en:Chapter 13
  582. 01:03:05.948                             : en:Chapter 14
  583. 01:08:14.048                             : en:Chapter 15
  584. 01:13:08.467                             : en:Chapter 16
  585. 01:17:53.168                             : en:Chapter 17
  586. 01:21:14.953                             : en:Chapter 18
  587. 01:26:20.466                             : en:Chapter 19
  588. 01:32:18.783                             : en:Chapter 20
复制代码

复制代码

教皇方济各:言出必行的人/教宗知行錄 Pope.Francis.A.Man.of.His.Word.2018.1080p.BluRay.REMUX.AVC.DTS-HD.MA.5.1-FGT 27.32GB-2.png 教皇方济各:言出必行的人/教宗知行錄 Pope.Francis.A.Man.of.His.Word.2018.1080p.BluRay.REMUX.AVC.DTS-HD.MA.5.1-FGT 27.32GB-3.png 教皇方济各:言出必行的人/教宗知行錄 Pope.Francis.A.Man.of.His.Word.2018.1080p.BluRay.REMUX.AVC.DTS-HD.MA.5.1-FGT 27.32GB-4.png





回复

使用道具 举报

级别:专业龙套 Lv.4

UID
4064
注册时间
2018-5-27
最后登录
2019-1-18
听众
3
收听
0
主题
0
蓝光币
1 枚
贡献
0 点
发表于 2018-11-16 19:41:55 | 显示全部楼层
感谢分享!
回复

使用道具 举报

懒得打字嘛,点击右侧快捷回复 【右侧内容,后台自定义】
您需要登录后才可以回帖 登录 | 立即注册

本版积分规则

QQ|Archiver|手机版|小黑屋|中国高清网 |网站地图

GMT+8, 2019-1-22 07:51 , Processed in 0.239150 second(s), 40 queries .

Powered by HDchina X3.4

Copyright 2017-2018©HDchina.All right reserved

返回顶部 联系我们