你所知道的4K资源这里全部都有 4K电影 | 4K视频 | 4K壁纸 | 4K MV 怎么播放4K视频 | 4K电视演示片

教你玩转4K私人与家庭影院存储 NAS组装 | 黑群辉 家庭/影院Nas论坛

4K家庭影院信号源与视频设备知识 4K蓝光高清播放机 - 那个品牌好? 4K投影机论坛 | 4K电视机论坛

手把手教你搭建属于自己的家庭影院 4K家庭影院案例 | 家庭影院音频 4K家庭影院论坛

查看: 28|回复: 1

[纪录片] 教皇方济各:言出必行的人/教宗知行錄 Pope.Francis.A.Man.of.His.Word.2018.1080p.BluRay.REMUX.AVC.DTS-HD.MA.5.1-FGT 27.32GB

[复制链接]

级别:资源管理组

UID
1
注册时间
2017-10-20
最后登录
2018-11-21
听众
0
收听
0
主题
72220
蓝光币
99015 枚
贡献
142028 点
发表于 2018-11-8 09:35:11 | 显示全部楼层 |阅读模式

教皇方济各:言出必行的人/教宗知行錄 Pope.Francis.A.Man.of.His.Word.2018.1080p.BluRay.REMUX.AVC.DTS-HD.MA.5.1-FGT 27.32GB-1.jpg
◎译  名 教皇方济各:言出必行的人 / 教宗知行錄(港) / Papa Francesco - Un uomo di parola / 教宗方濟各:信守諾言的人(台)
◎片  名 教皇方济各:言出必行的人 Pope Francis: A Man of His Word
◎年  代 2018
◎国  家 美国
◎类  别 记载片
◎语  言 英语
◎上映日期 2018-05-13(戛纳电影节) / 2018-05-18(美国)
◎IMDb评分  5.5/10 from 844 users
◎IMDb链接  http://www.imdb.com/title/tt6915100/
◎豆瓣评分 7.4/10 from 134 users
◎豆瓣链接 https://movie.douban.com/subject/27056532/
◎片  长 无片长信息
◎导  演 维姆·文德斯
◎主  演 Pope Francis

◎简  介 

  记载片围绕教皇方济各的履历展开。从他对贫民和财富分歧等点切入,到他对情况题目和社会正义的介入等一系列事务来展现教皇方济各的各个方面。影片由焦点影业打造。

  • Video
  • ID                                       : 1
  • Format                                   : AVC
  • Format/Info                              : Advanced Video Codec
  • Format profile                           : [email protected]
  • Format settings                          : CABAC / 4 Ref Frames
  • Format settings, CABAC                   : Yes
  • Format settings, ReFrames                : 4 frames
  • Format settings, GOP                     : M=3, N=12
  • Codec ID                                 : V_MPEG4/ISO/AVC
  • Duration                                 : 1 h 36 min
  • Bit rate mode                            : Variable
  • Bit rate                                 : 30.1 Mb/s
  • Maximum bit rate                         : 33.0 Mb/s
  • Width                                    : 1 920 pixels
  • Height                                   : 1 080 pixels
  • Display aspect ratio                     : 16:9
  • Frame rate mode                          : Constant
  • Frame rate                               : 23.976 (24000/1001) FPS
  • Color space                              : YUV
  • Chroma subsampling                       : 4:2:0
  • Bit depth                                : 8 bits
  • Scan type                                : Progressive
  • Bits/(Pixel*Frame)                       : 0.605
  • Stream size                              : 20.2 GiB (74%)
  • Title                                    : Pope.Francis.A.Man.of.His.Word.2018.1080p.BluRay.REMUX.AVC.DTS-HD.MA.5.1-FGT
  • Language                                 : English
  • Default                                  : No
  • Forced                                   : No
  • Audio #1
  • ID                                       : 2
  • Format                                   : DTS XLL
  • Format/Info                              : Digital Theater Systems
  • Commercial name                          : DTS-HD Master Audio
  • Codec ID                                 : A_DTS
  • Duration                                 : 1 h 36 min
  • Bit rate mode                            : Variable
  • Bit rate                                 : 3 635 kb/s
  • Channel(s)                               : 6 channels
  • Channel layout                           : C L R Ls Rs LFE
  • Sampling rate                            : 48.0 kHz
  • Frame rate                               : 93.750 FPS (512 SPF)
  • Bit depth                                : 24 bits
  • Compression mode                         : Lossless
  • Stream size                              : 2.44 GiB (9%)
  • Title                                    : Pope.Francis.A.Man.of.His.Word.2018.1080p.BluRay.REMUX.AVC.DTS-HD.MA.5.1-FGT
  • Language                                 : English
  • Default                                  : Yes
  • Forced                                   : No
  • Audio #2
  • ID                                       : 3
  • Format                                   : DTS
  • Format/Info                              : Digital Theater Systems
  • Codec ID                                 : A_DTS
  • Duration                                 : 1 h 36 min
  • Bit rate mode                            : Constant
  • Bit rate                                 : 1 509 kb/s
  • Channel(s)                               : 6 channels
  • Channel layout                           : C L R Ls Rs LFE
  • Sampling rate                            : 48.0 kHz
  • Frame rate                               : 93.750 FPS (512 SPF)
  • Bit depth                                : 24 bits
  • Compression mode                         : Lossy
  • Stream size                              : 1.01 GiB (4%)
  • Title                                    : Pope.Francis.A.Man.of.His.Word.2018.1080p.BluRay.REMUX.AVC.DTS-HD.MA.5.1-FGT
  • Language                                 : English
  • Default                                  : No
  • Forced                                   : No
  • Audio #3
  • ID                                       : 4
  • Format                                   : DTS
  • Format/Info                              : Digital Theater Systems
  • Codec ID                                 : A_DTS
  • Duration                                 : 1 h 36 min
  • Bit rate mode                            : Constant
  • Bit rate                                 : 768 kb/s
  • Channel(s)                               : 6 channels
  • Channel layout                           : C L R Ls Rs LFE
  • Sampling rate                            : 48.0 kHz
  • Frame rate                               : 93.750 FPS (512 SPF)
  • Bit depth                                : 24 bits
  • Compression mode                         : Lossy
  • Stream size                              : 529 MiB (2%)
  • Title                                    : Pope.Francis.A.Man.of.His.Word.2018.1080p.BluRay.REMUX.AVC.DTS-HD.MA.5.1-FGT
  • Language                                 : French
  • Default                                  : No
  • Forced                                   : No
  • Audio #4
  • ID                                       : 5
  • Format                                   : DTS
  • Format/Info                              : Digital Theater Systems
  • Codec ID                                 : A_DTS
  • Duration                                 : 1 h 36 min
  • Bit rate mode                            : Constant
  • Bit rate                                 : 768 kb/s
  • Channel(s)                               : 6 channels
  • Channel layout                           : C L R Ls Rs LFE
  • Sampling rate                            : 48.0 kHz
  • Frame rate                               : 93.750 FPS (512 SPF)
  • Bit depth                                : 24 bits
  • Compression mode                         : Lossy
  • Stream size                              : 529 MiB (2%)
  • Title                                    : Pope.Francis.A.Man.of.His.Word.2018.1080p.BluRay.REMUX.AVC.DTS-HD.MA.5.1-FGT
  • Language                                 : French
  • Default                                  : No
  • Forced                                   : No
  • Audio #5
  • ID                                       : 6
  • Format                                   : DTS
  • Format/Info                              : Digital Theater Systems
  • Codec ID                                 : A_DTS
  • Duration                                 : 1 h 36 min
  • Bit rate mode                            : Constant
  • Bit rate                                 : 768 kb/s
  • Channel(s)                               : 6 channels
  • Channel layout                           : C L R Ls Rs LFE
  • Sampling rate                            : 48.0 kHz
  • Frame rate                               : 93.750 FPS (512 SPF)
  • Bit depth                                : 24 bits
  • Compression mode                         : Lossy
  • Stream size                              : 529 MiB (2%)
  • Title                                    : Pope.Francis.A.Man.of.His.Word.2018.1080p.BluRay.REMUX.AVC.DTS-HD.MA.5.1-FGT
  • Language                                 : German
  • Default                                  : No
  • Forced                                   : No
  • Audio #6
  • ID                                       : 7
  • Format                                   : DTS
  • Format/Info                              : Digital Theater Systems
  • Codec ID                                 : A_DTS
  • Duration                                 : 1 h 36 min
  • Bit rate mode                            : Constant
  • Bit rate                                 : 768 kb/s
  • Channel(s)                               : 6 channels
  • Channel layout                           : C L R Ls Rs LFE
  • Sampling rate                            : 48.0 kHz
  • Frame rate                               : 93.750 FPS (512 SPF)
  • Bit depth                                : 24 bits
  • Compression mode                         : Lossy
  • Stream size                              : 529 MiB (2%)
  • Title                                    : Pope.Francis.A.Man.of.His.Word.2018.1080p.BluRay.REMUX.AVC.DTS-HD.MA.5.1-FGT
  • Language                                 : German
  • Default                                  : No
  • Forced                                   : No
  • Audio #7
  • ID                                       : 8
  • Format                                   : DTS
  • Format/Info                              : Digital Theater Systems
  • Codec ID                                 : A_DTS
  • Duration                                 : 1 h 36 min
  • Bit rate mode                            : Constant
  • Bit rate                                 : 768 kb/s
  • Channel(s)                               : 6 channels
  • Channel layout                           : C L R Ls Rs LFE
  • Sampling rate                            : 48.0 kHz
  • Frame rate                               : 93.750 FPS (512 SPF)
  • Bit depth                                : 24 bits
  • Compression mode                         : Lossy
  • Stream size                              : 529 MiB (2%)
  • Title                                    : Pope.Francis.A.Man.of.His.Word.2018.1080p.BluRay.REMUX.AVC.DTS-HD.MA.5.1-FGT
  • Language                                 : Italian
  • Default                                  : No
  • Forced                                   : No
  • Audio #8
  • ID                                       : 9
  • Format                                   : DTS
  • Format/Info                              : Digital Theater Systems
  • Codec ID                                 : A_DTS
  • Duration                                 : 1 h 36 min
  • Bit rate mode                            : Constant
  • Bit rate                                 : 768 kb/s
  • Channel(s)                               : 6 channels
  • Channel layout                           : C L R Ls Rs LFE
  • Sampling rate                            : 48.0 kHz
  • Frame rate                               : 93.750 FPS (512 SPF)
  • Bit depth                                : 24 bits
  • Compression mode                         : Lossy
  • Stream size                              : 529 MiB (2%)
  • Title                                    : Pope.Francis.A.Man.of.His.Word.2018.1080p.BluRay.REMUX.AVC.DTS-HD.MA.5.1-FGT
  • Language                                 : Spanish
  • Default                                  : No
  • Forced                                   : No
  • Audio #9
  • ID                                       : 10
  • Format                                   : AC-3
  • Format/Info                              : Audio Coding 3
  • Commercial name                          : Dolby Digital
  • Codec ID                                 : A_AC3
  • Duration                                 : 1 h 36 min
  • Bit rate mode                            : Constant
  • Bit rate                                 : 192 kb/s
  • Channel(s)                               : 2 channels
  • Channel layout                           : L R
  • Sampling rate                            : 48.0 kHz
  • Frame rate                               : 31.250 FPS (1536 SPF)
  • Bit depth                                : 16 bits
  • Compression mode                         : Lossy
  • Stream size                              : 132 MiB (0%)
  • Title                                    : Pope.Francis.A.Man.of.His.Word.2018.1080p.BluRay.REMUX.AVC.DTS-HD.MA.5.1-FGT
  • Language                                 : English
  • Service kind                             : Complete Main
  • Default                                  : No
  • Forced                                   : No
  • Audio #10
  • ID                                       : 11
  • Format                                   : AC-3
  • Format/Info                              : Audio Coding 3
  • Commercial name                          : Dolby Digital
  • Codec ID                                 : A_AC3
  • Duration                                 : 1 h 36 min
  • Bit rate mode                            : Constant
  • Bit rate                                 : 192 kb/s
  • Channel(s)                               : 2 channels
  • Channel layout                           : L R
  • Sampling rate                            : 48.0 kHz
  • Frame rate                               : 31.250 FPS (1536 SPF)
  • Bit depth                                : 16 bits
  • Compression mode                         : Lossy
  • Stream size                              : 132 MiB (0%)
  • Title                                    : Pope.Francis.A.Man.of.His.Word.2018.1080p.BluRay.REMUX.AVC.DTS-HD.MA.5.1-FGT
  • Language                                 : French
  • Service kind                             : Complete Main
  • Default                                  : No
  • Forced                                   : No
  • Audio #11
  • ID                                       : 12
  • Format                                   : AC-3
  • Format/Info                              : Audio Coding 3
  • Commercial name                          : Dolby Digital
  • Codec ID                                 : A_AC3
  • Duration                                 : 1 h 36 min
  • Bit rate mode                            : Constant
  • Bit rate                                 : 192 kb/s
  • Channel(s)                               : 2 channels
  • Channel layout                           : L R
  • Sampling rate                            : 48.0 kHz
  • Frame rate                               : 31.250 FPS (1536 SPF)
  • Bit depth                                : 16 bits
  • Compression mode                         : Lossy
  • Stream size                              : 132 MiB (0%)
  • Title                                    : Pope.Francis.A.Man.of.His.Word.2018.1080p.BluRay.REMUX.AVC.DTS-HD.MA.5.1-FGT
  • Language                                 : German
  • Service kind                             : Complete Main
  • Default                                  : No
  • Forced                                   : No
  • Text #1
  • ID                                       : 13
  • Format                                   : PGS
  • Muxing mode                              : zlib
  • Codec ID                                 : S_HDMV/PGS
  • Codec ID/Info                            : Picture based subtitle format used on BDs/HD-DVDs
  • Duration                                 : 1 h 35 min
  • Bit rate                                 : 36.9 kb/s
  • Count of elements                        : 2589
  • Stream size                              : 25.2 MiB (0%)
  • Title                                    : English-PGS
  • Language                                 : English
  • Default                                  : Yes
  • Forced                                   : No
  • Text #2
  • ID                                       : 14
  • Format                                   : PGS
  • Muxing mode                              : zlib
  • Codec ID                                 : S_HDMV/PGS
  • Codec ID/Info                            : Picture based subtitle format used on BDs/HD-DVDs
  • Duration                                 : 1 h 35 min
  • Bit rate                                 : 36.9 kb/s
  • Count of elements                        : 2426
  • Stream size                              : 25.2 MiB (0%)
  • Title                                    : French-PGS
  • Language                                 : French
  • Default                                  : No
  • Forced                                   : No
  • Text #3
  • ID                                       : 15
  • Format                                   : PGS
  • Muxing mode                              : zlib
  • Codec ID                                 : S_HDMV/PGS
  • Codec ID/Info                            : Picture based subtitle format used on BDs/HD-DVDs
  • Duration                                 : 1 h 35 min
  • Bit rate                                 : 36.6 kb/s
  • Count of elements                        : 2340
  • Stream size                              : 24.9 MiB (0%)
  • Title                                    : French-PGS
  • Language                                 : French
  • Default                                  : No
  • Forced                                   : No
  • Text #4
  • ID                                       : 16
  • Format                                   : PGS
  • Muxing mode                              : zlib
  • Codec ID                                 : S_HDMV/PGS
  • Codec ID/Info                            : Picture based subtitle format used on BDs/HD-DVDs
  • Duration                                 : 1 h 35 min
  • Bit rate                                 : 39.8 kb/s
  • Count of elements                        : 2330
  • Stream size                              : 27.1 MiB (0%)
  • Title                                    : German-PGS
  • Language                                 : German
  • Default                                  : No
  • Forced                                   : No
  • Text #5
  • ID                                       : 17
  • Format                                   : PGS
  • Muxing mode                              : zlib
  • Codec ID                                 : S_HDMV/PGS
  • Codec ID/Info                            : Picture based subtitle format used on BDs/HD-DVDs
  • Duration                                 : 1 h 34 min
  • Bit rate                                 : 27.4 kb/s
  • Count of elements                        : 1898
  • Stream size                              : 18.5 MiB (0%)
  • Title                                    : Italian-PGS
  • Language                                 : Italian
  • Default                                  : No
  • Forced                                   : No
  • Text #6
  • ID                                       : 18
  • Format                                   : PGS
  • Muxing mode                              : zlib
  • Codec ID                                 : S_HDMV/PGS
  • Codec ID/Info                            : Picture based subtitle format used on BDs/HD-DVDs
  • Duration                                 : 1 h 34 min
  • Bit rate                                 : 19.0 kb/s
  • Count of elements                        : 1167
  • Stream size                              : 12.8 MiB (0%)
  • Title                                    : Spanish-PGS
  • Language                                 : Spanish
  • Default                                  : No
  • Forced                                   : No
  • Text #7
  • ID                                       : 19
  • Format                                   : PGS
  • Muxing mode                              : zlib
  • Codec ID                                 : S_HDMV/PGS
  • Codec ID/Info                            : Picture based subtitle format used on BDs/HD-DVDs
  • Duration                                 : 1 h 34 min
  • Bit rate                                 : 36.4 kb/s
  • Count of elements                        : 2455
  • Stream size                              : 24.6 MiB (0%)
  • Title                                    : Dutch-PGS
  • Language                                 : Dutch
  • Default                                  : No
  • Forced                                   : No
  • Text #8
  • ID                                       : 20
  • Format                                   : PGS
  • Muxing mode                              : zlib
  • Codec ID                                 : S_HDMV/PGS
  • Codec ID/Info                            : Picture based subtitle format used on BDs/HD-DVDs
  • Duration                                 : 1 h 34 min
  • Bit rate                                 : 33.3 kb/s
  • Count of elements                        : 2454
  • Stream size                              : 22.5 MiB (0%)
  • Title                                    : Danish-PGS
  • Language                                 : Danish
  • Default                                  : No
  • Forced                                   : No
  • Text #9
  • ID                                       : 21
  • Format                                   : PGS
  • Muxing mode                              : zlib
  • Codec ID                                 : S_HDMV/PGS
  • Codec ID/Info                            : Picture based subtitle format used on BDs/HD-DVDs
  • Duration                                 : 1 h 34 min
  • Bit rate                                 : 35.8 kb/s
  • Count of elements                        : 2454
  • Stream size                              : 24.2 MiB (0%)
  • Title                                    : Finnish-PGS
  • Language                                 : Finnish
  • Default                                  : No
  • Forced                                   : No
  • Text #10
  • ID                                       : 22
  • Format                                   : PGS
  • Muxing mode                              : zlib
  • Codec ID                                 : S_HDMV/PGS
  • Codec ID/Info                            : Picture based subtitle format used on BDs/HD-DVDs
  • Duration                                 : 1 h 34 min
  • Bit rate                                 : 33.2 kb/s
  • Count of elements                        : 2455
  • Stream size                              : 22.4 MiB (0%)
  • Title                                    : Norwegian-PGS
  • Language                                 : Norwegian
  • Default                                  : No
  • Forced                                   : No
  • Text #11
  • ID                                       : 23
  • Format                                   : PGS
  • Muxing mode                              : zlib
  • Codec ID                                 : S_HDMV/PGS
  • Codec ID/Info                            : Picture based subtitle format used on BDs/HD-DVDs
  • Duration                                 : 1 h 34 min
  • Bit rate                                 : 34.3 kb/s
  • Count of elements                        : 2450
  • Stream size                              : 23.2 MiB (0%)
  • Title                                    : Swedish-PGS
  • Language                                 : Swedish
  • Default                                  : No
  • Forced                                   : No
  • Text #12
  • ID                                       : 24
  • Format                                   : PGS
  • Muxing mode                              : zlib
  • Codec ID                                 : S_HDMV/PGS
  • Codec ID/Info                            : Picture based subtitle format used on BDs/HD-DVDs
  • Duration                                 : 1 h 34 min
  • Bit rate                                 : 35.2 kb/s
  • Count of elements                        : 2461
  • Stream size                              : 23.8 MiB (0%)
  • Title                                    : Portuguese-PGS
  • Language                                 : Portuguese
  • Default                                  : No
  • Forced                                   : No
  • Text #13
  • ID                                       : 25
  • Format                                   : PGS
  • Muxing mode                              : zlib
  • Codec ID                                 : S_HDMV/PGS
  • Codec ID/Info                            : Picture based subtitle format used on BDs/HD-DVDs
  • Duration                                 : 1 h 34 min
  • Bit rate                                 : 29.6 kb/s
  • Count of elements                        : 2459
  • Stream size                              : 20.0 MiB (0%)
  • Title                                    : Hindi-PGS
  • Language                                 : Hindi
  • Default                                  : No
  • Forced                                   : No
  • Text #14
  • ID                                       : 26
  • Format                                   : PGS
  • Muxing mode                              : zlib
  • Codec ID                                 : S_HDMV/PGS
  • Codec ID/Info                            : Picture based subtitle format used on BDs/HD-DVDs
  • Duration                                 : 1 h 34 min
  • Bit rate                                 : 17.4 kb/s
  • Count of elements                        : 2459
  • Stream size                              : 11.8 MiB (0%)
  • Title                                    : Arabic-PGS
  • Language                                 : Arabic
  • Default                                  : No
  • Forced                                   : No
  • Text #15
  • ID                                       : 27
  • Format                                   : PGS
  • Muxing mode                              : zlib
  • Codec ID                                 : S_HDMV/PGS
  • Codec ID/Info                            : Picture based subtitle format used on BDs/HD-DVDs
  • Duration                                 : 1 h 34 min
  • Bit rate                                 : 34.5 kb/s
  • Count of elements                        : 2459
  • Stream size                              : 23.3 MiB (0%)
  • Title                                    : Icelandic-PGS
  • Language                                 : Icelandic
  • Default                                  : No
  • Forced                                   : No
  • Text #16
  • ID                                       : 28
  • Format                                   : PGS
  • Muxing mode                              : zlib
  • Codec ID                                 : S_HDMV/PGS
  • Codec ID/Info                            : Picture based subtitle format used on BDs/HD-DVDs
  • Duration                                 : 1 h 26 min
  • Bit rate                                 : 23.5 kb/s
  • Count of elements                        : 1982
  • Stream size                              : 14.6 MiB (0%)
  • Title                                    : English-FORCED-PGS
  • Language                                 : English
  • Default                                  : No
  • Forced                                   : No
  • Text #17
  • ID                                       : 29
  • Format                                   : PGS
  • Muxing mode                              : zlib
  • Codec ID                                 : S_HDMV/PGS
  • Codec ID/Info                            : Picture based subtitle format used on BDs/HD-DVDs
  • Duration                                 : 1 h 35 min
  • Bit rate                                 : 29.8 kb/s
  • Count of elements                        : 2042
  • Stream size                              : 20.3 MiB (0%)
  • Title                                    : French-FORCED-PGS
  • Language                                 : French
  • Default                                  : No
  • Forced                                   : No
  • Text #18
  • ID                                       : 30
  • Format                                   : PGS
  • Muxing mode                              : zlib
  • Codec ID                                 : S_HDMV/PGS
  • Codec ID/Info                            : Picture based subtitle format used on BDs/HD-DVDs
  • Duration                                 : 1 h 35 min
  • Bit rate                                 : 2 227 b/s
  • Count of elements                        : 109
  • Stream size                              : 1.52 MiB (0%)
  • Title                                    : French-FORCED-PGS
  • Language                                 : French
  • Default                                  : No
  • Forced                                   : No
  • Text #19
  • ID                                       : 31
  • Format                                   : PGS
  • Muxing mode                              : zlib
  • Codec ID                                 : S_HDMV/PGS
  • Codec ID/Info                            : Picture based subtitle format used on BDs/HD-DVDs
  • Duration                                 : 1 h 30 min
  • Bit rate                                 : 32.4 kb/s
  • Count of elements                        : 1798
  • Stream size                              : 21.0 MiB (0%)
  • Title                                    : German-FORCED-PGS
  • Language                                 : German
  • Default                                  : No
  • Forced                                   : No
  • Text #20
  • ID                                       : 32
  • Format                                   : PGS
  • Muxing mode                              : zlib
  • Codec ID                                 : S_HDMV/PGS
  • Codec ID/Info                            : Picture based subtitle format used on BDs/HD-DVDs
  • Duration                                 : 1 h 29 min
  • Bit rate                                 : 377 b/s
  • Count of elements                        : 24
  • Stream size                              : 247 KiB (0%)
  • Title                                    : German-FORCED-PGS
  • Language                                 : German
  • Default                                  : No
  • Forced                                   : No
  • Text #21
  • ID                                       : 33
  • Format                                   : PGS
  • Muxing mode                              : zlib
  • Codec ID                                 : S_HDMV/PGS
  • Codec ID/Info                            : Picture based subtitle format used on BDs/HD-DVDs
  • Duration                                 : 1 h 30 min
  • Bit rate                                 : 32.4 kb/s
  • Count of elements                        : 1798
  • Stream size                              : 21.0 MiB (0%)
  • Title                                    : German-FORCED-PGS
  • Language                                 : German
  • Default                                  : No
  • Forced                                   : No
  • Text #22
  • ID                                       : 34
  • Format                                   : PGS
  • Muxing mode                              : zlib
  • Codec ID                                 : S_HDMV/PGS
  • Codec ID/Info                            : Picture based subtitle format used on BDs/HD-DVDs
  • Duration                                 : 1 h 30 min
  • Bit rate                                 : 21.2 kb/s
  • Count of elements                        : 1534
  • Stream size                              : 13.8 MiB (0%)
  • Title                                    : Italian-FORCED-PGS
  • Language                                 : Italian
  • Default                                  : No
  • Forced                                   : No
  • Text #23
  • ID                                       : 35
  • Format                                   : PGS
  • Muxing mode                              : zlib
  • Codec ID                                 : S_HDMV/PGS
  • Codec ID/Info                            : Picture based subtitle format used on BDs/HD-DVDs
  • Duration                                 : 1 h 30 min
  • Bit rate                                 : 1 356 b/s
  • Count of elements                        : 61
  • Stream size                              : 902 KiB (0%)
  • Title                                    : Spanish-FORCED-PGS
  • Language                                 : Spanish
  • Default                                  : No
  • Forced                                   : No
  • Menu
  • 00:00:00.000                             : en:Chapter 01
  • 00:05:23.740                             : en:Chapter 02
  • 00:11:03.746                             : en:Chapter 03
  • 00:15:36.477                             : en:Chapter 04
  • 00:20:58.131                             : en:Chapter 05
  • 00:25:20.477                             : en:Chapter 06
  • 00:28:57.110                             : en:Chapter 07
  • 00:32:41.042                             : en:Chapter 08
  • 00:37:16.817                             : en:Chapter 09
  • 00:41:31.447                             : en:Chapter 10
  • 00:46:37.252                             : en:Chapter 11
  • 00:53:53.855                             : en:Chapter 12
  • 00:59:20.390                             : en:Chapter 13
  • 01:03:05.948                             : en:Chapter 14
  • 01:08:14.048                             : en:Chapter 15
  • 01:13:08.467                             : en:Chapter 16
  • 01:17:53.168                             : en:Chapter 17
  • 01:21:14.953                             : en:Chapter 18
  • 01:26:20.466                             : en:Chapter 19
  • 01:32:18.783                             : en:Chapter 20

复制代码

教皇方济各:言出必行的人/教宗知行錄 Pope.Francis.A.Man.of.His.Word.2018.1080p.BluRay.REMUX.AVC.DTS-HD.MA.5.1-FGT 27.32GB-2.png 教皇方济各:言出必行的人/教宗知行錄 Pope.Francis.A.Man.of.His.Word.2018.1080p.BluRay.REMUX.AVC.DTS-HD.MA.5.1-FGT 27.32GB-3.png 教皇方济各:言出必行的人/教宗知行錄 Pope.Francis.A.Man.of.His.Word.2018.1080p.BluRay.REMUX.AVC.DTS-HD.MA.5.1-FGT 27.32GB-4.png





回复

使用道具 举报

级别:专业龙套 Lv.4

UID
4064
注册时间
2018-5-27
最后登录
2018-11-18
听众
3
收听
0
主题
0
蓝光币
-1 枚
贡献
0 点
发表于 5 天前 | 显示全部楼层
感谢分享!
回复

使用道具 举报

您需要登录后才可以回帖 登录 | 立即注册

本版积分规则

QQ|Archiver|手机版|小黑屋|中国高清网  |网站地图

GMT+8, 2018-11-21 21:46 , Processed in 0.235160 second(s), 41 queries .

Powered by HDchina X3.4

Copyright 2017-2018©HDchina.All right reserved

返回顶部 联系我们