你所知道的4K资源这里全部都有 4K电影 | 4K视频 | 4K壁纸 | 4K MV 怎么播放4K视频 | 4K电视演示片

教你玩转4K私人与家庭影院存储 NAS组装 | 黑群辉 家庭/影院Nas论坛

4K家庭影院信号源与视频设备知识 4K蓝光高清播放机 - 那个品牌好? 4K投影机论坛 | 4K电视机论坛

手把手教你搭建属于自己的家庭影院 4K家庭影院案例 | 家庭影院音频 4K家庭影院论坛

查看: 34|回复: 0

[惊悚片] 木乃伊魔咒 The.Curse.of.the.Mummys.Tomb.1964.1080p.BluRay.REMUX.AVC.LPCM.1.0-FGT 20.27GB

[复制链接]

级别:资源管理组

UID
1
注册时间
2017-10-20
最后登录
2018-11-21
听众
0
收听
0
主题
72220
蓝光币
99015 枚
贡献
142028 点
发表于 2018-11-8 09:34:48 | 显示全部楼层 |阅读模式

木乃伊魔咒 The.Curse.of.the.Mummys.Tomb.1964.1080p.BluRay.REMUX.AVC.LPCM.1.0-FGT 20.27GB-1.jpg
◎译  名 木乃伊魔咒
◎片  名 木乃伊魔咒 The Curse of the Mummy's Tomb
◎年  代 1964
◎国  家 英国
◎类  别 惊悚 / 可骇
◎语  言 英语
◎上映日期 1964-10-18
◎IMDb评分  5.6/10 from 1,863 users
◎IMDb链接  http://www.imdb.com/title/tt0057986/
◎豆瓣评分 今朝无人评价
◎豆瓣链接 https://movie.douban.com/subject/2240461/
◎片  长 78 分钟 / USA: 81 分钟
◎导  演 Michael Carreras
◎主  演 Terence Morgan
      Ronald Howard
      Fred Clark

◎简  介 

  The mummy of an ancient Egyptian ruler comes murderously unraveled when a team of foolish archaeologists disturb his centuries-long sleep. A classic 1964 horror flick from Hammer Films.

  • Video
  • ID                                       : 1
  • Format                                   : AVC
  • Format/Info                              : Advanced Video Codec
  • Format profile                           : [email protected]
  • Format settings                          : CABAC / 3 Ref Frames
  • Format settings, CABAC                   : Yes
  • Format settings, ReFrames                : 3 frames
  • Codec ID                                 : V_MPEG4/ISO/AVC
  • Duration                                 : 1 h 20 min
  • Bit rate mode                            : Variable
  • Bit rate                                 : 35.0 Mb/s
  • Maximum bit rate                         : 40.0 Mb/s
  • Width                                    : 1 920 pixels
  • Height                                   : 1 080 pixels
  • Display aspect ratio                     : 16:9
  • Frame rate mode                          : Constant
  • Frame rate                               : 23.976 (24000/1001) FPS
  • Color space                              : YUV
  • Chroma subsampling                       : 4:2:0
  • Bit depth                                : 8 bits
  • Scan type                                : Progressive
  • Bits/(Pixel*Frame)                       : 0.704
  • Stream size                              : 19.6 GiB (97%)
  • Title                                    : The.Curse.of.the.Mummys.Tomb.1964.1080p.BluRay.REMUX.AVC.LPCM.1.0-FGT
  • Writing library                          : x264 core 148 r2705 3f5ed56
  • Encoding settings                        : cabac=1 / ref=4 / deblock=0:-1:-1 / analyse=0x3:0x113 / me=umh / subme=8 / psy=1 / psy_rd=1.00:0.15 / mixed_ref=1 / me_range=16 / chroma_me=1 / trellis=1 / 8x8dct=1 / cqm=0 / deadzone=21,11 / fast_pskip=1 / chroma_qp_offset=-3 / threads=12 / lookahead_threads=2 / sliced_threads=0 / slices=4 / nr=0 / decimate=1 / interlaced=0 / bluray_compat=1 / constrained_intra=0 / bframes=3 / b_pyramid=1 / b_adapt=2 / b_bias=0 / direct=3 / weightb=1 / open_gop=1 / weightp=1 / keyint=24 / keyint_min=1 / scenecut=40 / intra_refresh=0 / rc_lookahead=24 / rc=abr / mbtree=0 / bitrate=35000 / ratetol=1.0 / qcomp=0.30 / qpmin=0 / qpmax=69 / qpstep=4 / vbv_maxrate=40000 / vbv_bufsize=30000 / nal_hrd=vbr / filler=0 / ip_ratio=1.40 / pb_ratio=1.30 / aq=1:0.60
  • Language                                 : English
  • Default                                  : No
  • Forced                                   : No
  • Color range                              : Limited
  • Color primaries                          : BT.709
  • Transfer characteristics                 : BT.709
  • Matrix coefficients                      : BT.709
  • Audio
  • ID                                       : 2
  • Format                                   : PCM
  • Format settings                          : Little / Signed
  • Codec ID                                 : A_PCM/INT/LIT
  • Duration                                 : 1 h 20 min
  • Bit rate mode                            : Constant
  • Bit rate                                 : 1 152 kb/s
  • Sampling rate                            : 48.0 kHz
  • Frame rate                               : 30.000 FPS (1600 SPF)
  • Bit depth                                : 24 bits
  • Stream size                              : 661 MiB (3%)
  • Title                                    : The.Curse.of.the.Mummys.Tomb.1964.1080p.BluRay.REMUX.AVC.LPCM.1.0-FGT
  • Language                                 : English
  • Default                                  : Yes
  • Forced                                   : No
  • Text
  • ID                                       : 3
  • Format                                   : PGS
  • Muxing mode                              : zlib
  • Codec ID                                 : S_HDMV/PGS
  • Codec ID/Info                            : Picture based subtitle format used on BDs/HD-DVDs
  • Duration                                 : 1 h 17 min
  • Bit rate                                 : 39.7 kb/s
  • Count of elements                        : 1916
  • Stream size                              : 22.1 MiB (0%)
  • Title                                    : English-PGS
  • Language                                 : English
  • Default                                  : Yes
  • Forced                                   : No
  • Menu
  • 00:00:00.000                             : en:Chapter 01
  • 00:12:42.720                             : en:Chapter 02
  • 00:16:43.836                             : en:Chapter 03
  • 00:24:29.718                             : en:Chapter 04
  • 00:32:01.502                             : en:Chapter 05
  • 00:40:37.226                             : en:Chapter 06
  • 00:47:37.855                             : en:Chapter 07
  • 00:54:03.990                             : en:Chapter 08
  • 01:04:06.884                             : en:Chapter 09
  • 01:15:32.152                             : en:Chapter 10

复制代码

木乃伊魔咒 The.Curse.of.the.Mummys.Tomb.1964.1080p.BluRay.REMUX.AVC.LPCM.1.0-FGT 20.27GB-2.png 木乃伊魔咒 The.Curse.of.the.Mummys.Tomb.1964.1080p.BluRay.REMUX.AVC.LPCM.1.0-FGT 20.27GB-3.png 木乃伊魔咒 The.Curse.of.the.Mummys.Tomb.1964.1080p.BluRay.REMUX.AVC.LPCM.1.0-FGT 20.27GB-4.png





回复

使用道具 举报

您需要登录后才可以回帖 登录 | 立即注册

本版积分规则

QQ|Archiver|手机版|小黑屋|中国高清网  |网站地图

GMT+8, 2018-11-21 22:45 , Processed in 0.122333 second(s), 41 queries .

Powered by HDchina X3.4

Copyright 2017-2018©HDchina.All right reserved

返回顶部 联系我们