你所知道的4K资源这里全部都有 4K电影 | 4K视频 | 4K壁纸 | 4K MV 怎么播放4K视频 | 4K电视演示片

教你玩转4K私人与家庭影院存储 NAS组装 | 黑群辉 家庭/影院Nas论坛

4K家庭影院信号源与视频设备知识 4K蓝光高清播放机 - 那个品牌好? 4K投影机论坛 | 4K电视机论坛

手把手教你搭建属于自己的家庭影院 4K家庭影院案例 | 家庭影院音频 4K家庭影院论坛

查看: 45|回复: 1

[喜剧片] 黑色党徒 BlacKkKlansman.2018.1080p.BluRay.x264.TrueHD.7.1.Atmos-FGT 12.57GB

[复制链接]

级别:资源管理组

UID
1
注册时间
2017-10-20
最后登录
2018-11-21
听众
0
收听
0
主题
72220
蓝光币
99015 枚
贡献
142028 点
发表于 2018-11-7 23:08:25 | 显示全部楼层 |阅读模式

黑色党徒 BlacKkKlansman.2018.1080p.BluRay.x264.TrueHD.7.1.Atmos-FGT 12.57GB-1.jpg
◎译  名 黑色党徒 / Black Klansman
◎片  名 黑色党徒 BlacKkKlansman
◎年  代 2018
◎国  家 美国
◎类  别 笑剧 / 列传 / 犯罪
◎语  言 英语
◎上映日期 2018-05-14(戛纳电影节) / 2018-08-10(美国)
◎IMDb评分  7.7/10 from 47,263 users
◎IMDb链接  http://www.imdb.com/title/tt7349662/
◎豆瓣评分 7.0/10 from 2775 users
◎豆瓣链接 https://movie.douban.com/subject/27133913/
◎片  长 135分钟
◎导  演 斯派克·李
◎主  演 约翰·大卫·华盛顿
      亚历克·鲍德温
      小伊塞亚·维特洛克
      罗伯特·约翰·伯克
      布赖恩·塔伦蒂诺
      阿瑟·J·纳斯加勒拉
      根·加里托
      弗雷德里克·韦勒
      亚当·德赖弗
      迈克尔·布谢米
      劳拉·哈里尔
      达马里斯·刘易斯
      科里·霍金斯
      法龙·索尔兹伯里
      瑞安·艾戈尔德
      加斯帕·帕科农
      保罗·沃尔特·豪泽
      阿什莉·阿特金森
      托弗·戈瑞斯
      维克托·科利采奇妙

◎简  介 

  《黑色党徒》按照2014年罗恩·斯塔尔沃斯所著的自传改编,报告了一位科罗拉多州的黑人差人,成功潜入当地的3K党构造做卧底的故事。

◎获奖情况 

  第71届戛纳电影节 (2018)
  主比赛单元 金棕榈奖(提名) 斯派克·李
  主比赛单元 评审团大奖 斯派克·李

  第71届洛迦诺国际电影节 (2018)
  观众挑选奖 斯派克·李

  第28届哥谭自力电影奖 (2018)
  最好男演员(提名) 亚当·德赖弗

  第22届好莱坞电影奖 (2018)
  年度冲破男演员 约翰·大卫·华盛顿

  • Video
  • ID                                       : 1
  • Format                                   : AVC
  • Format/Info                              : Advanced Video Codec
  • Format profile                           : [email protected]
  • Format settings                          : CABAC / 5 Ref Frames
  • Format settings, CABAC                   : Yes
  • Format settings, ReFrames                : 5 frames
  • Codec ID                                 : V_MPEG4/ISO/AVC
  • Duration                                 : 2 h 14 min
  • Bit rate                                 : 8 646 kb/s
  • Width                                    : 1 920 pixels
  • Height                                   : 808 pixels
  • Display aspect ratio                     : 2.40:1
  • Frame rate mode                          : Constant
  • Frame rate                               : 23.976 FPS
  • Color space                              : YUV
  • Chroma subsampling                       : 4:2:0
  • Bit depth                                : 8 bits
  • Scan type                                : Progressive
  • Bits/(Pixel*Frame)                       : 0.232
  • Stream size                              : 8.14 GiB (65%)
  • Title                                    : BlacKkKlansman.2018.1080p.BluRay.x264.TrueHD.7.1.Atmos-FGT
  • Writing library                          : x264 core 157 r2935 545de2f
  • Encoding settings                        : cabac=1 / ref=5 / deblock=1:0:0 / analyse=0x3:0x133 / me=umh / subme=7 / psy=1 / psy_rd=1.00:0.00 / mixed_ref=1 / me_range=16 / chroma_me=1 / trellis=1 / 8x8dct=1 / cqm=0 / deadzone=21,11 / fast_pskip=0 / chroma_qp_offset=-2 / threads=25 / lookahead_threads=4 / sliced_threads=0 / nr=0 / decimate=1 / interlaced=0 / bluray_compat=0 / constrained_intra=0 / bframes=3 / b_pyramid=2 / b_adapt=1 / b_bias=0 / direct=1 / weightb=1 / open_gop=0 / weightp=2 / keyint=250 / keyint_min=23 / scenecut=40 / intra_refresh=0 / rc_lookahead=40 / rc=2pass / mbtree=1 / bitrate=8646 / ratetol=1.0 / qcomp=0.60 / qpmin=0 / qpmax=69 / qpstep=4 / cplxblur=20.0 / qblur=0.5 / ip_ratio=1.40 / aq=1:1.00
  • Language                                 : English
  • Default                                  : Yes
  • Forced                                   : No
  • Audio #1
  • ID                                       : 2
  • Format                                   : MLP FBA 16-ch
  • Format/Info                              : Meridian Lossless Packing FBA with 16-channel presentation
  • Commercial name                          : Dolby TrueHD with Dolby Atmos
  • Codec ID                                 : A_TRUEHD
  • Duration                                 : 2 h 14 min
  • Bit rate mode                            : Variable
  • Bit rate                                 : 3 950 kb/s
  • Maximum bit rate                         : 6 804 kb/s
  • Channel(s)                               : 8 channels
  • Channel layout                           : L R C LFE Ls Rs Lb Rb
  • Sampling rate                            : 48.0 kHz
  • Frame rate                               : 1 200.000 FPS (40 SPF)
  • Compression mode                         : Lossless
  • Stream size                              : 3.72 GiB (30%)
  • Title                                    : BlacKkKlansman.2018.1080p.BluRay.x264.TrueHD.7.1.Atmos-FGT
  • Language                                 : English
  • Default                                  : Yes
  • Forced                                   : No
  • Number of dynamic objects                : 11
  • Bed channel count                        : 1 channel
  • Bed channel configuration                : LFE
  • Audio #2
  • ID                                       : 3
  • Format                                   : AC-3
  • Format/Info                              : Audio Coding 3
  • Commercial name                          : Dolby Digital
  • Codec ID                                 : A_AC3
  • Duration                                 : 2 h 14 min
  • Bit rate mode                            : Constant
  • Bit rate                                 : 640 kb/s
  • Channel(s)                               : 6 channels
  • Channel layout                           : L R C LFE Ls Rs
  • Sampling rate                            : 48.0 kHz
  • Frame rate                               : 31.250 FPS (1536 SPF)
  • Bit depth                                : 16 bits
  • Compression mode                         : Lossy
  • Stream size                              : 617 MiB (5%)
  • Title                                    : BlacKkKlansman.2018.1080p.BluRay.x264.TrueHD.7.1.Atmos-FGT
  • Language                                 : English
  • Service kind                             : Complete Main
  • Default                                  : No
  • Forced                                   : No
  • Text #1
  • ID                                       : 4
  • Format                                   : UTF-8
  • Codec ID                                 : S_TEXT/UTF8
  • Codec ID/Info                            : UTF-8 Plain Text
  • Duration                                 : 2 h 7 min
  • Bit rate                                 : 84 b/s
  • Count of elements                        : 2445
  • Stream size                              : 79.2 KiB (0%)
  • Title                                    : English-SRT
  • Language                                 : English
  • Default                                  : Yes
  • Forced                                   : No
  • Text #2
  • ID                                       : 5
  • Format                                   : PGS
  • Muxing mode                              : zlib
  • Codec ID                                 : S_HDMV/PGS
  • Codec ID/Info                            : Picture based subtitle format used on BDs/HD-DVDs
  • Duration                                 : 2 h 8 min
  • Bit rate                                 : 60.7 kb/s
  • Count of elements                        : 5274
  • Stream size                              : 55.7 MiB (0%)
  • Title                                    : English-PGS
  • Language                                 : English
  • Default                                  : No
  • Forced                                   : No
  • Text #3
  • ID                                       : 6
  • Format                                   : PGS
  • Muxing mode                              : zlib
  • Codec ID                                 : S_HDMV/PGS
  • Codec ID/Info                            : Picture based subtitle format used on BDs/HD-DVDs
  • Duration                                 : 2 h 13 min
  • Bit rate                                 : 54.2 kb/s
  • Count of elements                        : 5310
  • Stream size                              : 51.6 MiB (0%)
  • Title                                    : Spanish-PGS
  • Language                                 : Spanish
  • Default                                  : No
  • Forced                                   : No
  • Text #4
  • ID                                       : 7
  • Format                                   : PGS
  • Muxing mode                              : zlib
  • Codec ID                                 : S_HDMV/PGS
  • Codec ID/Info                            : Picture based subtitle format used on BDs/HD-DVDs
  • Duration                                 : 2 h 13 min
  • Bit rate                                 : 48.4 kb/s
  • Count of elements                        : 4893
  • Stream size                              : 46.4 MiB (0%)
  • Title                                    : French-PGS
  • Language                                 : French
  • Default                                  : No
  • Forced                                   : No
  • Menu
  • 00:00:00.000                             : en:00:00:00.000
  • 00:04:10.250                             : en:00:04:10.250
  • 00:13:54.876                             : en:00:13:54.876
  • 00:23:16.604                             : en:00:23:16.604
  • 00:27:56.508                             : en:00:27:56.508
  • 00:36:10.668                             : en:00:36:10.668
  • 00:43:21.557                             : en:00:43:21.557
  • 00:48:30.616                             : en:00:48:30.616
  • 00:54:58.629                             : en:00:54:58.629
  • 00:59:48.543                             : en:00:59:48.543
  • 01:07:04.771                             : en:01:07:04.771
  • 01:16:37.802                             : en:01:16:37.802
  • 01:22:20.394                             : en:01:22:20.394
  • 01:29:38.123                             : en:01:29:38.123
  • 01:39:10.653                             : en:01:39:10.653
  • 01:48:27.042                             : en:01:48:27.042
  • 01:56:05.584                             : en:01:56:05.584
  • 02:00:43.945                             : en:02:00:43.945
  • 02:03:57.430                             : en:02:03:57.430
  • 02:09:03.569                             : en:02:09:03.569

复制代码

黑色党徒 BlacKkKlansman.2018.1080p.BluRay.x264.TrueHD.7.1.Atmos-FGT 12.57GB-2.png 黑色党徒 BlacKkKlansman.2018.1080p.BluRay.x264.TrueHD.7.1.Atmos-FGT 12.57GB-3.png 黑色党徒 BlacKkKlansman.2018.1080p.BluRay.x264.TrueHD.7.1.Atmos-FGT 12.57GB-4.png





回复

使用道具 举报

级别:群众演员 Lv.3

UID
322
注册时间
2018-1-7
最后登录
2018-11-18
听众
1
收听
0
主题
0
蓝光币
32 枚
贡献
0 点
发表于 2018-11-9 00:32:05 | 显示全部楼层
感谢分享。
回复

使用道具 举报

您需要登录后才可以回帖 登录 | 立即注册

本版积分规则

QQ|Archiver|手机版|小黑屋|中国高清网  |网站地图

GMT+8, 2018-11-21 22:14 , Processed in 0.185832 second(s), 41 queries .

Powered by HDchina X3.4

Copyright 2017-2018©HDchina.All right reserved

返回顶部 联系我们