你所知道的4K资源这里全部都有 4K电影 | 4K视频 | 4K壁纸 | 4K MV 怎么播放4K视频 | 4K电视演示片

教你玩转4K私人与家庭影院存储 NAS组装 | 黑群辉 家庭/影院Nas论坛

4K家庭影院信号源与视频设备知识 4K蓝光高清播放机 - 那个品牌好? 4K投影机论坛 | 4K电视机论坛

手把手教你搭建属于自己的家庭影院 4K家庭影院案例 | 家庭影院音频 4K家庭影院论坛

查看: 74|回复: 0

[科幻片] 月光光心慌慌3/万圣节3 Halloween.III.Season.of.the.Witch.1982.REMASTERED.1080p.BluRay.REMUX.AVC.DTS-HD.MA.2.0-FGT 29.89GB

[复制链接]

 成长值: 130

级别:资源管理组

UID
1
注册时间
2017-10-20
最后登录
2019-1-22
听众
0
收听
0
主题
73996
蓝光币
116842 枚
贡献
143805 点
发表于 2018-11-6 14:58:38 | 显示全部楼层 |阅读模式

月光光心慌慌3/万圣节3 Halloween.III.Season.of.the.Witch.1982.REMASTERED.1080p.BluRay.REMUX.AVC.DTS-HD.MA.2.0-FGT 29.89GB-1.jpg
◎译  名 月光光心慌慌3 / 万圣节3 / 抓鬼节3 / Halloween 3 / The Last Halloween
◎片  名 月光光心慌慌3 Halloween III: Season of the Witch
◎年  代 1982
◎国  家 美国
◎类  别 科幻 / 悬疑 / 可骇
◎语  言 英语
◎上映日期 1982-10-22
◎IMDb评分  4.8/10 from 36,472 users
◎IMDb链接  http://www.imdb.com/title/tt0085636/
◎豆瓣评分 5.2/10 from 465 users
◎豆瓣链接 https://movie.douban.com/subject/1296163/
◎片  长 98 分钟
◎导  演 汤米·李·华莱士
◎主  演 汤姆· 阿特金斯
      Stacey Nelkin
      丹·奥赫里奇
      迈克尔·柯里
      Ralph Strait

◎简  介 

  万圣节前一个神志不清的老人对医生说"他们将会杀死我们",随后便被残暴谋杀。老人的女儿请求医生帮助自己清查父亲死因。两人追随线索到一家专做可骇头套的玩具工场。工场地点的镇上又稀有人被残暴杀戮。离万圣节越来越近,这家工场的诡计也逐步表暴露来.....


  1. Video
  2. ID                                       : 1
  3. Format                                   : AVC
  4. Format/Info                              : Advanced Video Codec
  5. Format profile                           : [url=/cdn-cgi/l/email-protection][email protected][/url]
  6. Format settings                          : CABAC / 4 Ref Frames
  7. Format settings, CABAC                   : Yes
  8. Format settings, ReFrames                : 4 frames
  9. Codec ID                                 : V_MPEG4/ISO/AVC
  10. Duration                                 : 1 h 38 min
  11. Bit rate mode                            : Constant
  12. Bit rate                                 : 35.0 Mb/s
  13. Width                                    : 1 920 pixels
  14. Height                                   : 1 080 pixels
  15. Display aspect ratio                     : 16:9
  16. Frame rate mode                          : Constant
  17. Frame rate                               : 23.976 (24000/1001) FPS
  18. Color space                              : YUV
  19. Chroma subsampling                       : 4:2:0
  20. Bit depth                                : 8 bits
  21. Scan type                                : Progressive
  22. Bits/(Pixel*Frame)                       : 0.704
  23. Stream size                              : 23.2 GiB (78%)
  24. Title                                    : Halloween.III.Season.of.the.Witch.1982.REMASTERED.1080p.BluRay.REMUX.AVC.DTS-HD.MA.2.0-FGT
  25. Language                                 : English
  26. Default                                  : No
  27. Forced                                   : No

  28. Audio #1
  29. ID                                       : 2
  30. Format                                   : DTS XLL
  31. Format/Info                              : Digital Theater Systems
  32. Commercial name                          : DTS-HD Master Audio
  33. Codec ID                                 : A_DTS
  34. Duration                                 : 1 h 38 min
  35. Bit rate mode                            : Variable
  36. Bit rate                                 : 2 000 kb/s
  37. Channel(s)                               : 2 channels
  38. Channel layout                           : L R
  39. Sampling rate                            : 48.0 kHz
  40. Frame rate                               : 93.750 FPS (512 SPF)
  41. Bit depth                                : 24 bits
  42. Compression mode                         : Lossless
  43. Stream size                              : 1.37 GiB (5%)
  44. Title                                    : Halloween.III.Season.of.the.Witch.1982.REMASTERED.1080p.BluRay.REMUX.AVC.DTS-HD.MA.2.0-FGT
  45. Language                                 : English
  46. Default                                  : Yes
  47. Forced                                   : No

  48. Audio #2
  49. ID                                       : 3
  50. Format                                   : DTS
  51. Format/Info                              : Digital Theater Systems
  52. Codec ID                                 : A_DTS
  53. Duration                                 : 1 h 38 min
  54. Bit rate mode                            : Constant
  55. Bit rate                                 : 1 509 kb/s
  56. Channel(s)                               : 2 channels
  57. Channel layout                           : L R
  58. Sampling rate                            : 48.0 kHz
  59. Frame rate                               : 93.750 FPS (512 SPF)
  60. Bit depth                                : 24 bits
  61. Compression mode                         : Lossy
  62. Stream size                              : 1.04 GiB (3%)
  63. Title                                    : Halloween.III.Season.of.the.Witch.1982.REMASTERED.1080p.BluRay.REMUX.AVC.DTS-HD.MA.2.0-FGT
  64. Language                                 : English
  65. Default                                  : No
  66. Forced                                   : No

  67. Audio #3
  68. ID                                       : 4
  69. Format                                   : DTS XLL
  70. Format/Info                              : Digital Theater Systems
  71. Commercial name                          : DTS-HD Master Audio
  72. Codec ID                                 : A_DTS
  73. Duration                                 : 1 h 38 min
  74. Bit rate mode                            : Variable
  75. Bit rate                                 : 1 559 kb/s
  76. Channel(s)                               : 2 channels
  77. Channel layout                           : L R
  78. Sampling rate                            : 48.0 kHz
  79. Frame rate                               : 93.750 FPS (512 SPF)
  80. Bit depth                                : 24 bits
  81. Compression mode                         : Lossless
  82. Stream size                              : 1.07 GiB (4%)
  83. Title                                    : Halloween.III.Season.of.the.Witch.1982.REMASTERED.1080p.BluRay.REMUX.AVC.DTS-HD.MA.2.0-FGT
  84. Language                                 : English
  85. Default                                  : No
  86. Forced                                   : No

  87. Audio #4
  88. ID                                       : 5
  89. Format                                   : DTS
  90. Format/Info                              : Digital Theater Systems
  91. Codec ID                                 : A_DTS
  92. Duration                                 : 1 h 38 min
  93. Bit rate mode                            : Constant
  94. Bit rate                                 : 1 509 kb/s
  95. Channel(s)                               : 2 channels
  96. Channel layout                           : L R
  97. Sampling rate                            : 48.0 kHz
  98. Frame rate                               : 93.750 FPS (512 SPF)
  99. Bit depth                                : 24 bits
  100. Compression mode                         : Lossy
  101. Stream size                              : 1.04 GiB (3%)
  102. Title                                    : Halloween.III.Season.of.the.Witch.1982.REMASTERED.1080p.BluRay.REMUX.AVC.DTS-HD.MA.2.0-FGT
  103. Language                                 : English
  104. Default                                  : No
  105. Forced                                   : No

  106. Audio #5
  107. ID                                       : 6
  108. Format                                   : DTS XLL
  109. Format/Info                              : Digital Theater Systems
  110. Commercial name                          : DTS-HD Master Audio
  111. Codec ID                                 : A_DTS
  112. Duration                                 : 1 h 38 min
  113. Bit rate mode                            : Variable
  114. Bit rate                                 : 1 560 kb/s
  115. Channel(s)                               : 2 channels
  116. Channel layout                           : L R
  117. Sampling rate                            : 48.0 kHz
  118. Frame rate                               : 93.750 FPS (512 SPF)
  119. Bit depth                                : 24 bits
  120. Compression mode                         : Lossless
  121. Stream size                              : 1.07 GiB (4%)
  122. Title                                    : Halloween.III.Season.of.the.Witch.1982.REMASTERED.1080p.BluRay.REMUX.AVC.DTS-HD.MA.2.0-FGT
  123. Language                                 : English
  124. Default                                  : No
  125. Forced                                   : No

  126. Audio #6
  127. ID                                       : 7
  128. Format                                   : DTS
  129. Format/Info                              : Digital Theater Systems
  130. Codec ID                                 : A_DTS
  131. Duration                                 : 1 h 38 min
  132. Bit rate mode                            : Constant
  133. Bit rate                                 : 1 509 kb/s
  134. Channel(s)                               : 2 channels
  135. Channel layout                           : L R
  136. Sampling rate                            : 48.0 kHz
  137. Frame rate                               : 93.750 FPS (512 SPF)
  138. Bit depth                                : 24 bits
  139. Compression mode                         : Lossy
  140. Stream size                              : 1.04 GiB (3%)
  141. Title                                    : Halloween.III.Season.of.the.Witch.1982.REMASTERED.1080p.BluRay.REMUX.AVC.DTS-HD.MA.2.0-FGT
  142. Language                                 : English
  143. Default                                  : No
  144. Forced                                   : No

  145. Text
  146. ID                                       : 8
  147. Format                                   : PGS
  148. Muxing mode                              : zlib
  149. Codec ID                                 : S_HDMV/PGS
  150. Codec ID/Info                            : Picture based subtitle format used on BDs/HD-DVDs
  151. Duration                                 : 1 h 34 min
  152. Bit rate                                 : 31.2 kb/s
  153. Count of elements                        : 2206
  154. Stream size                              : 21.1 MiB (0%)
  155. Title                                    : English-PGS
  156. Language                                 : English
  157. Default                                  : Yes
  158. Forced                                   : No

  159. Menu
  160. 00:00:00.000                             : en:Chapter 01
  161. 00:06:31.641                             : en:Chapter 02
  162. 00:09:05.086                             : en:Chapter 03
  163. 00:16:20.229                             : en:Chapter 04
  164. 00:20:52.125                             : en:Chapter 05
  165. 00:25:59.474                             : en:Chapter 06
  166. 00:31:32.515                             : en:Chapter 07
  167. 00:36:30.021                             : en:Chapter 08
  168. 00:41:13.929                             : en:Chapter 09
  169. 00:45:34.356                             : en:Chapter 10
  170. 00:49:44.398                             : en:Chapter 11
  171. 00:54:26.513                             : en:Chapter 12
  172. 01:03:10.119                             : en:Chapter 13
  173. 01:11:15.813                             : en:Chapter 14
  174. 01:15:22.184                             : en:Chapter 15
  175. 01:21:11.992                             : en:Chapter 16
  176. 01:28:31.055                             : en:Chapter 17
  177. 01:33:17.758                             : en:Chapter 18
复制代码

复制代码

月光光心慌慌3/万圣节3 Halloween.III.Season.of.the.Witch.1982.REMASTERED.1080p.BluRay.REMUX.AVC.DTS-HD.MA.2.0-FGT 29.89GB-2.png 月光光心慌慌3/万圣节3 Halloween.III.Season.of.the.Witch.1982.REMASTERED.1080p.BluRay.REMUX.AVC.DTS-HD.MA.2.0-FGT 29.89GB-3.png 月光光心慌慌3/万圣节3 Halloween.III.Season.of.the.Witch.1982.REMASTERED.1080p.BluRay.REMUX.AVC.DTS-HD.MA.2.0-FGT 29.89GB-4.png





回复

使用道具 举报

懒得打字嘛,点击右侧快捷回复 【右侧内容,后台自定义】
您需要登录后才可以回帖 登录 | 立即注册

本版积分规则

QQ|Archiver|手机版|小黑屋|中国高清网 |网站地图

GMT+8, 2019-1-23 00:26 , Processed in 0.145407 second(s), 40 queries .

Powered by HDchina X3.4

Copyright 2017-2018©HDchina.All right reserved

返回顶部 联系我们