你所知道的4K资源这里全部都有 4K电影 | 4K视频 | 4K壁纸 | 4K MV 怎么播放4K视频 | 4K电视演示片

教你玩转4K私人与家庭影院存储 NAS组装 | 黑群辉 家庭/影院Nas论坛

4K家庭影院信号源与视频设备知识 4K蓝光高清播放机 - 那个品牌好? 4K投影机论坛 | 4K电视机论坛

手把手教你搭建属于自己的家庭影院 4K家庭影院案例 | 家庭影院音频 4K家庭影院论坛

查看: 166|回复: 1

[科幻片] 天魔回魂/沉睡百万年 Prince.Of.Darkness.1987.REMASTERED.1080p.BluRay.REMUX.AVC.DTS-HD.MA.5.1-FGT 29.16GB

[复制链接]

 成长值: 710

级别:资源管理组

注册时间
2017-10-20
最后登录
2019-3-22
听众
0
收听
0
主题
76497
蓝光币
134745 枚
贡献
146306 点
发表于 2018-11-6 09:47:21 | 显示全部楼层 |阅读模式

天魔回魂/沉睡百万年 Prince.Of.Darkness.1987.REMASTERED.1080p.BluRay.REMUX.AVC.DTS-HD.MA.5.1-FGT 29.16GB-1.jpg
◎译  名 天魔回魂 / 沉睡百万年
◎片  名 天魔回魂 Prince of Darkness
◎年  代 1987
◎国  家 美国
◎类  别 科幻 / 可骇
◎语  言 英语
◎上映日期 1988-03-11
◎IMDb评分  6.7/10 from 30,642 users
◎IMDb链接  http://www.imdb.com/title/tt0093777/
◎豆瓣评分 6.5/10 from 727 users
◎豆瓣链接 https://movie.douban.com/subject/1294184/
◎片  长 102 分钟
◎导  演 约翰·卡朋特
◎主  演 唐纳德·普利森斯
      黄自强
      丽萨·布伦特
      詹姆森·帕克
      丹尼斯·邓恩
      Anne Marie Howard
      德克·布罗克
      杰西·劳伦斯
      皮特·杰森
      Thom Bray
      乔安娜·默林

◎简  介 

  在洛杉矶一间废置的教堂里,一个牧师召集了一班门生与科学家,研讨他们找到一个盛有绿色液体的玻璃管。这枝玻璃管可以将魔鬼之子开释,终极可以将魔鬼带到人世,天下末日便会到临。


  1. Video
  2. ID                                       : 1
  3. Format                                   : AVC
  4. Format/Info                              : Advanced Video Codec
  5. Format profile                           : [url=/cdn-cgi/l/email-protection][email protected][/url]
  6. Format settings                          : CABAC / 4 Ref Frames
  7. Format settings, CABAC                   : Yes
  8. Format settings, ReFrames                : 4 frames
  9. Codec ID                                 : V_MPEG4/ISO/AVC
  10. Duration                                 : 1 h 41 min
  11. Bit rate mode                            : Constant
  12. Bit rate                                 : 25.4 Mb/s
  13. Width                                    : 1 920 pixels
  14. Height                                   : 1 080 pixels
  15. Display aspect ratio                     : 16:9
  16. Frame rate mode                          : Constant
  17. Frame rate                               : 24.000 FPS
  18. Color space                              : YUV
  19. Chroma subsampling                       : 4:2:0
  20. Bit depth                                : 8 bits
  21. Scan type                                : Progressive
  22. Bits/(Pixel*Frame)                       : 0.510
  23. Stream size                              : 17.5 GiB (60%)
  24. Title                                    : Prince.Of.Darkness.1987.REMASTERED.1080p.BluRay.REMUX.AVC.DTS-HD.MA.5.1-FGT
  25. Language                                 : English
  26. Default                                  : No
  27. Forced                                   : No

  28. Audio #1
  29. ID                                       : 2
  30. Format                                   : DTS XLL
  31. Format/Info                              : Digital Theater Systems
  32. Commercial name                          : DTS-HD Master Audio
  33. Codec ID                                 : A_DTS
  34. Duration                                 : 1 h 41 min
  35. Bit rate mode                            : Variable
  36. Bit rate                                 : 3 571 kb/s
  37. Channel(s)                               : 6 channels
  38. Channel layout                           : C L R Ls Rs LFE
  39. Sampling rate                            : 48.0 kHz
  40. Frame rate                               : 93.750 FPS (512 SPF)
  41. Bit depth                                : 24 bits
  42. Compression mode                         : Lossless
  43. Stream size                              : 2.54 GiB (9%)
  44. Title                                    : Prince.Of.Darkness.1987.REMASTERED.1080p.BluRay.REMUX.AVC.DTS-HD.MA.5.1-FGT
  45. Language                                 : English
  46. Default                                  : Yes
  47. Forced                                   : No

  48. Audio #2
  49. ID                                       : 3
  50. Format                                   : DTS
  51. Format/Info                              : Digital Theater Systems
  52. Codec ID                                 : A_DTS
  53. Duration                                 : 1 h 41 min
  54. Bit rate mode                            : Constant
  55. Bit rate                                 : 1 509 kb/s
  56. Channel(s)                               : 6 channels
  57. Channel layout                           : C L R Ls Rs LFE
  58. Sampling rate                            : 48.0 kHz
  59. Frame rate                               : 93.750 FPS (512 SPF)
  60. Bit depth                                : 24 bits
  61. Compression mode                         : Lossy
  62. Stream size                              : 1.07 GiB (4%)
  63. Title                                    : Prince.Of.Darkness.1987.REMASTERED.1080p.BluRay.REMUX.AVC.DTS-HD.MA.5.1-FGT
  64. Language                                 : English
  65. Default                                  : No
  66. Forced                                   : No

  67. Audio #3
  68. ID                                       : 4
  69. Format                                   : DTS XLL
  70. Format/Info                              : Digital Theater Systems
  71. Commercial name                          : DTS-HD Master Audio
  72. Codec ID                                 : A_DTS
  73. Duration                                 : 1 h 41 min
  74. Bit rate mode                            : Variable
  75. Bit rate                                 : 3 832 kb/s
  76. Channel(s)                               : 6 channels
  77. Channel layout                           : C L R Ls Rs LFE
  78. Sampling rate                            : 48.0 kHz
  79. Frame rate                               : 93.750 FPS (512 SPF)
  80. Bit depth                                : 24 bits
  81. Compression mode                         : Lossless
  82. Stream size                              : 2.73 GiB (9%)
  83. Title                                    : Prince.Of.Darkness.1987.REMASTERED.1080p.BluRay.REMUX.AVC.DTS-HD.MA.5.1-FGT
  84. Language                                 : French
  85. Default                                  : No
  86. Forced                                   : No

  87. Audio #4
  88. ID                                       : 5
  89. Format                                   : DTS
  90. Format/Info                              : Digital Theater Systems
  91. Codec ID                                 : A_DTS
  92. Duration                                 : 1 h 41 min
  93. Bit rate mode                            : Constant
  94. Bit rate                                 : 1 509 kb/s
  95. Channel(s)                               : 6 channels
  96. Channel layout                           : C L R Ls Rs LFE
  97. Sampling rate                            : 48.0 kHz
  98. Frame rate                               : 93.750 FPS (512 SPF)
  99. Bit depth                                : 24 bits
  100. Compression mode                         : Lossy
  101. Stream size                              : 1.07 GiB (4%)
  102. Title                                    : Prince.Of.Darkness.1987.REMASTERED.1080p.BluRay.REMUX.AVC.DTS-HD.MA.5.1-FGT
  103. Language                                 : French
  104. Default                                  : No
  105. Forced                                   : No

  106. Audio #5
  107. ID                                       : 6
  108. Format                                   : DTS XLL
  109. Format/Info                              : Digital Theater Systems
  110. Commercial name                          : DTS-HD Master Audio
  111. Codec ID                                 : A_DTS
  112. Duration                                 : 1 h 41 min
  113. Bit rate mode                            : Variable
  114. Bit rate                                 : 2 136 kb/s
  115. Channel(s)                               : 2 channels
  116. Channel layout                           : L R
  117. Sampling rate                            : 48.0 kHz
  118. Frame rate                               : 93.750 FPS (512 SPF)
  119. Bit depth                                : 24 bits
  120. Compression mode                         : Lossless
  121. Stream size                              : 1.52 GiB (5%)
  122. Title                                    : Prince.Of.Darkness.1987.REMASTERED.1080p.BluRay.REMUX.AVC.DTS-HD.MA.5.1-FGT
  123. Language                                 : German
  124. Default                                  : No
  125. Forced                                   : No

  126. Audio #6
  127. ID                                       : 7
  128. Format                                   : DTS
  129. Format/Info                              : Digital Theater Systems
  130. Codec ID                                 : A_DTS
  131. Duration                                 : 1 h 41 min
  132. Bit rate mode                            : Constant
  133. Bit rate                                 : 1 509 kb/s
  134. Channel(s)                               : 2 channels
  135. Channel layout                           : L R
  136. Sampling rate                            : 48.0 kHz
  137. Frame rate                               : 93.750 FPS (512 SPF)
  138. Bit depth                                : 24 bits
  139. Compression mode                         : Lossy
  140. Stream size                              : 1.07 GiB (4%)
  141. Title                                    : Prince.Of.Darkness.1987.REMASTERED.1080p.BluRay.REMUX.AVC.DTS-HD.MA.5.1-FGT
  142. Language                                 : German
  143. Default                                  : No
  144. Forced                                   : No

  145. Audio #7
  146. ID                                       : 8
  147. Format                                   : PCM
  148. Format settings                          : Little / Signed
  149. Codec ID                                 : A_PCM/INT/LIT
  150. Duration                                 : 1 h 41 min
  151. Bit rate mode                            : Constant
  152. Bit rate                                 : 2 304 kb/s
  153. Channel(s)                               : 2 channels
  154. Sampling rate                            : 48.0 kHz
  155. Frame rate                               : 30.000 FPS (1600 SPF)
  156. Bit depth                                : 24 bits
  157. Stream size                              : 1.64 GiB (6%)
  158. Title                                    : Prince.Of.Darkness.1987.REMASTERED.1080p.BluRay.REMUX.AVC.DTS-HD.MA.5.1-FGT
  159. Language                                 : English
  160. Default                                  : No
  161. Forced                                   : No

  162. Text #1
  163. ID                                       : 9
  164. Format                                   : PGS
  165. Muxing mode                              : zlib
  166. Codec ID                                 : S_HDMV/PGS
  167. Codec ID/Info                            : Picture based subtitle format used on BDs/HD-DVDs
  168. Duration                                 : 1 h 37 min
  169. Bit rate                                 : 25.2 kb/s
  170. Count of elements                        : 1794
  171. Stream size                              : 17.6 MiB (0%)
  172. Title                                    : English-PGS
  173. Language                                 : English
  174. Default                                  : Yes
  175. Forced                                   : No

  176. Text #2
  177. ID                                       : 10
  178. Format                                   : PGS
  179. Muxing mode                              : zlib
  180. Codec ID                                 : S_HDMV/PGS
  181. Codec ID/Info                            : Picture based subtitle format used on BDs/HD-DVDs
  182. Duration                                 : 1 h 40 min
  183. Bit rate                                 : 14.3 kb/s
  184. Count of elements                        : 1376
  185. Stream size                              : 10.2 MiB (0%)
  186. Title                                    : French-PGS
  187. Language                                 : French
  188. Default                                  : No
  189. Forced                                   : No

  190. Text #3
  191. ID                                       : 11
  192. Format                                   : PGS
  193. Muxing mode                              : zlib
  194. Codec ID                                 : S_HDMV/PGS
  195. Codec ID/Info                            : Picture based subtitle format used on BDs/HD-DVDs
  196. Duration                                 : 1 h 35 min
  197. Bit rate                                 : 18.9 kb/s
  198. Count of elements                        : 1016
  199. Stream size                              : 12.9 MiB (0%)
  200. Title                                    : German-PGS
  201. Language                                 : German
  202. Default                                  : No
  203. Forced                                   : No

  204. Menu
  205. 00:00:00.000                             : en:Chapter 01
  206. 00:11:24.416                             : en:Chapter 02
  207. 00:20:05.000                             : en:Chapter 03
  208. 00:30:43.416                             : en:Chapter 04
  209. 00:42:11.291                             : en:Chapter 05
  210. 00:53:26.125                             : en:Chapter 06
  211. 01:06:35.666                             : en:Chapter 07
  212. 01:13:59.875                             : en:Chapter 08
  213. 01:23:36.625                             : en:Chapter 09
  214. 01:26:47.958                             : en:Chapter 10
  215. 01:35:09.083                             : en:Chapter 11
  216. 01:38:42.916                             : en:Chapter 12
复制代码

复制代码

天魔回魂/沉睡百万年 Prince.Of.Darkness.1987.REMASTERED.1080p.BluRay.REMUX.AVC.DTS-HD.MA.5.1-FGT 29.16GB-2.png 天魔回魂/沉睡百万年 Prince.Of.Darkness.1987.REMASTERED.1080p.BluRay.REMUX.AVC.DTS-HD.MA.5.1-FGT 29.16GB-3.png 天魔回魂/沉睡百万年 Prince.Of.Darkness.1987.REMASTERED.1080p.BluRay.REMUX.AVC.DTS-HD.MA.5.1-FGT 29.16GB-4.png



回复

使用道具 举报

级别:普通观众 Lv.2

注册时间
2019-1-30
最后登录
2019-2-21
听众
0
收听
0
主题
0
蓝光币
30 枚
贡献
0 点
QQ
发表于 2019-1-31 01:48:29 | 显示全部楼层

这东西我收了!谢谢楼主!中国高清电影网真好!
回复

使用道具 举报

懒得打字嘛,点击右侧快捷回复 【右侧内容,后台自定义】
您需要登录后才可以回帖 登录 | 立即注册

本版积分规则

QQ|Archiver|手机版|小黑屋|中国高清网 |网站地图

GMT+8, 2019-3-22 10:52 , Processed in 0.194508 second(s), 42 queries .

Powered by HDchina X3.4

Copyright 2017-2018©HDchina.All right reserved

返回顶部 联系我们