你所知道的4K资源这里全部都有 4K电影 | 4K视频 | 4K壁纸 | 4K MV 怎么播放4K视频 | 4K电视演示片

教你玩转4K私人与家庭影院存储 NAS组装 | 黑群辉 家庭/影院Nas论坛

4K家庭影院信号源与视频设备知识 4K蓝光高清播放机 - 那个品牌好? 4K投影机论坛 | 4K电视机论坛

手把手教你搭建属于自己的家庭影院 4K家庭影院案例 | 家庭影院音频 4K家庭影院论坛

查看: 173|回复: 0

[科幻片] 2001太空漫游/2001:星际漫游 2001.A.Space.Odyssey.1968.REMASTERED.1080p.BluRay.REMUX.AVC.DTS-HD.MA.5.1-FGT 41.17GB

[复制链接]

 成长值: 710

级别:资源管理组

注册时间
2017-10-20
最后登录
2019-3-22
听众
0
收听
0
主题
76497
蓝光币
134731 枚
贡献
146306 点
发表于 2018-10-30 09:47:17 | 显示全部楼层 |阅读模式

2001太空周游/2001:星际周游 2001.A.Space.Odyssey.1968.REMASTERED.1080p.BluRay.REMUX.AVC.DTS-HD.MA.5.1-FGT 41.17GB-1.jpg
◎译  名 2001太空周游 / 2001:星际周游 / 2001:太空奥德赛
◎片  名 2001太空周游 2001: A Space Odyssey
◎年  代 1968
◎国  家 英国 / 美国
◎类  别 科幻 / 惊悚 / 冒险
◎语  言 英语 / 俄语
◎上映日期 1968-04-02(华盛稽首映) / 1968-05-12(英国)
◎IMDb评分  8.3/10 from 518,761 users
◎IMDb链接  http://www.imdb.com/title/tt0062622/
◎豆瓣评分 8.7/10 from 110000 users
◎豆瓣链接 https://movie.douban.com/subject/1292226/
◎片  长 148分钟
◎导  演 斯坦利·库布里克
◎主  演 凯尔·杜拉
      加里·洛克伍德
      威廉姆·西尔维斯特
      丹尼尔·里希特
      雷纳德·洛塞特
      罗伯特·比提
      肖恩·沙利文
      艾德·毕肖普
      格伦·贝克
      艾伦·吉福德
      安·吉祥斯

◎简  介 

  这部影片是库布里克花了四年时候建造的布满哲学命题的鸿篇巨制。一块大黑石建立在史前人类的眼前,他们刚刚起头熟悉工具,进入到进化的里程碑。一样的黑石还在宇宙多处出现,它们耸立在月球上,漂泊在太空中,带着某种奥秘的寓意。
  现在的时候是2001年,为了寻觅黑石的根源,人类展开一项木星登陆计划。飞船上有蛰伏的三名宇航员,大卫船主(凯尔·杜拉 Keir Dullea饰)、富兰克飞翔员(加里·洛克伍德 Gary Lockwood饰),还有一部叫“HAL9000”的高智能电脑。HAL在宇宙飞翔进程中发生庞杂,令到富兰克和三名蛰伏职员相继丧命,剩下波曼和这台电脑作战。
  从灭亡线上返来的大卫一气之下关掉主脑系统,HAL完全生效。现在,茫茫宇宙中只剩大卫一人,向木星进发。穿越瑰异壮观的星门,大卫恍如去到一个奇异的时空,那边有人类无尽的生死循环和宇宙的终极常识……

◎获奖情况 

  第41届奥斯卡金像奖 (1969)
  最好导演(提名) 斯坦利·库布里克
  最好原创剧本(提名) 亚瑟·克拉克 /  斯坦利·库布里克
  最好视觉结果 斯坦利·库布里克
  最好艺术指导(提名) Anthony Masters /  哈利·兰格


  1. Video
  2. ID                                       : 1
  3. Format                                   : AVC
  4. Format/Info                              : Advanced Video Codec
  5. Format profile                           : [url=/cdn-cgi/l/email-protection][email protected][/url]
  6. Format settings                          : CABAC / 4 Ref Frames
  7. Format settings, CABAC                   : Yes
  8. Format settings, ReFrames                : 4 frames
  9. Format settings, GOP                     : M=3, N=12
  10. Codec ID                                 : V_MPEG4/ISO/AVC
  11. Duration                                 : 2 h 28 min
  12. Bit rate mode                            : Variable
  13. Bit rate                                 : 29.0 Mb/s
  14. Maximum bit rate                         : 34.0 Mb/s
  15. Width                                    : 1 920 pixels
  16. Height                                   : 1 080 pixels
  17. Display aspect ratio                     : 16:9
  18. Frame rate mode                          : Constant
  19. Frame rate                               : 23.976 (24000/1001) FPS
  20. Color space                              : YUV
  21. Chroma subsampling                       : 4:2:0
  22. Bit depth                                : 8 bits
  23. Scan type                                : Progressive
  24. Bits/(Pixel*Frame)                       : 0.584
  25. Stream size                              : 30.2 GiB (73%)
  26. Title                                    : 2001.A.Space.Odyssey.1968.REMASTERED.1080p.BluRay.REMUX.AVC.DTS-HD.MA.5.1-FGT
  27. Language                                 : English
  28. Default                                  : No
  29. Forced                                   : No

  30. Audio #1
  31. ID                                       : 2
  32. Format                                   : DTS XLL
  33. Format/Info                              : Digital Theater Systems
  34. Commercial name                          : DTS-HD Master Audio
  35. Codec ID                                 : A_DTS
  36. Duration                                 : 2 h 28 min
  37. Bit rate mode                            : Variable
  38. Bit rate                                 : 2 197 kb/s
  39. Channel(s)                               : 6 channels
  40. Channel layout                           : C L R Ls Rs LFE
  41. Sampling rate                            : 48.0 kHz
  42. Frame rate                               : 93.750 FPS (512 SPF)
  43. Bit depth                                : 16 bits
  44. Compression mode                         : Lossless
  45. Stream size                              : 2.28 GiB (6%)
  46. Title                                    : 2001.A.Space.Odyssey.1968.REMASTERED.1080p.BluRay.REMUX.AVC.DTS-HD.MA.5.1-FGT
  47. Language                                 : English
  48. Default                                  : Yes
  49. Forced                                   : No

  50. Audio #2
  51. ID                                       : 3
  52. Format                                   : DTS
  53. Format/Info                              : Digital Theater Systems
  54. Codec ID                                 : A_DTS
  55. Duration                                 : 2 h 28 min
  56. Bit rate mode                            : Constant
  57. Bit rate                                 : 1 509 kb/s
  58. Channel(s)                               : 6 channels
  59. Channel layout                           : C L R Ls Rs LFE
  60. Sampling rate                            : 48.0 kHz
  61. Frame rate                               : 93.750 FPS (512 SPF)
  62. Bit depth                                : 16 bits
  63. Compression mode                         : Lossy
  64. Stream size                              : 1.57 GiB (4%)
  65. Title                                    : 2001.A.Space.Odyssey.1968.REMASTERED.1080p.BluRay.REMUX.AVC.DTS-HD.MA.5.1-FGT
  66. Language                                 : English
  67. Default                                  : No
  68. Forced                                   : No

  69. Audio #3
  70. ID                                       : 4
  71. Format                                   : DTS XLL
  72. Format/Info                              : Digital Theater Systems
  73. Commercial name                          : DTS-HD Master Audio
  74. Codec ID                                 : A_DTS
  75. Duration                                 : 2 h 28 min
  76. Bit rate mode                            : Variable
  77. Bit rate                                 : 2 170 kb/s
  78. Channel(s)                               : 6 channels
  79. Channel layout                           : C L R Ls Rs LFE
  80. Sampling rate                            : 48.0 kHz
  81. Frame rate                               : 93.750 FPS (512 SPF)
  82. Bit depth                                : 16 bits
  83. Compression mode                         : Lossless
  84. Stream size                              : 2.26 GiB (5%)
  85. Title                                    : 2001.A.Space.Odyssey.1968.REMASTERED.1080p.BluRay.REMUX.AVC.DTS-HD.MA.5.1-FGT
  86. Language                                 : English
  87. Default                                  : No
  88. Forced                                   : No

  89. Audio #4
  90. ID                                       : 5
  91. Format                                   : DTS
  92. Format/Info                              : Digital Theater Systems
  93. Codec ID                                 : A_DTS
  94. Duration                                 : 2 h 28 min
  95. Bit rate mode                            : Constant
  96. Bit rate                                 : 1 509 kb/s
  97. Channel(s)                               : 6 channels
  98. Channel layout                           : C L R Ls Rs LFE
  99. Sampling rate                            : 48.0 kHz
  100. Frame rate                               : 93.750 FPS (512 SPF)
  101. Bit depth                                : 16 bits
  102. Compression mode                         : Lossy
  103. Stream size                              : 1.57 GiB (4%)
  104. Title                                    : 2001.A.Space.Odyssey.1968.REMASTERED.1080p.BluRay.REMUX.AVC.DTS-HD.MA.5.1-FGT
  105. Language                                 : English
  106. Default                                  : No
  107. Forced                                   : No

  108. Audio #5
  109. ID                                       : 6
  110. Format                                   : AC-3
  111. Format/Info                              : Audio Coding 3
  112. Commercial name                          : Dolby Digital
  113. Codec ID                                 : A_AC3
  114. Duration                                 : 2 h 28 min
  115. Bit rate mode                            : Constant
  116. Bit rate                                 : 192 kb/s
  117. Channel(s)                               : 2 channels
  118. Channel layout                           : L R
  119. Sampling rate                            : 48.0 kHz
  120. Frame rate                               : 31.250 FPS (1536 SPF)
  121. Bit depth                                : 16 bits
  122. Compression mode                         : Lossy
  123. Stream size                              : 204 MiB (0%)
  124. Title                                    : 2001.A.Space.Odyssey.1968.REMASTERED.1080p.BluRay.REMUX.AVC.DTS-HD.MA.5.1-FGT
  125. Language                                 : English
  126. Service kind                             : Complete Main
  127. Default                                  : No
  128. Forced                                   : No

  129. Audio #6
  130. ID                                       : 7
  131. Format                                   : AC-3
  132. Format/Info                              : Audio Coding 3
  133. Commercial name                          : Dolby Digital
  134. Codec ID                                 : A_AC3
  135. Duration                                 : 2 h 28 min
  136. Bit rate mode                            : Constant
  137. Bit rate                                 : 448 kb/s
  138. Channel(s)                               : 6 channels
  139. Channel layout                           : L R C LFE Ls Rs
  140. Sampling rate                            : 48.0 kHz
  141. Frame rate                               : 31.250 FPS (1536 SPF)
  142. Bit depth                                : 16 bits
  143. Compression mode                         : Lossy
  144. Stream size                              : 477 MiB (1%)
  145. Title                                    : 2001.A.Space.Odyssey.1968.REMASTERED.1080p.BluRay.REMUX.AVC.DTS-HD.MA.5.1-FGT
  146. Language                                 : French
  147. Service kind                             : Complete Main
  148. Default                                  : No
  149. Forced                                   : No

  150. Audio #7
  151. ID                                       : 8
  152. Format                                   : AC-3
  153. Format/Info                              : Audio Coding 3
  154. Commercial name                          : Dolby Digital
  155. Codec ID                                 : A_AC3
  156. Duration                                 : 2 h 28 min
  157. Bit rate mode                            : Constant
  158. Bit rate                                 : 448 kb/s
  159. Channel(s)                               : 6 channels
  160. Channel layout                           : L R C LFE Ls Rs
  161. Sampling rate                            : 48.0 kHz
  162. Frame rate                               : 31.250 FPS (1536 SPF)
  163. Bit depth                                : 16 bits
  164. Compression mode                         : Lossy
  165. Stream size                              : 477 MiB (1%)
  166. Title                                    : 2001.A.Space.Odyssey.1968.REMASTERED.1080p.BluRay.REMUX.AVC.DTS-HD.MA.5.1-FGT
  167. Language                                 : German
  168. Service kind                             : Complete Main
  169. Default                                  : No
  170. Forced                                   : No

  171. Audio #8
  172. ID                                       : 9
  173. Format                                   : AC-3
  174. Format/Info                              : Audio Coding 3
  175. Commercial name                          : Dolby Digital
  176. Codec ID                                 : A_AC3
  177. Duration                                 : 2 h 28 min
  178. Bit rate mode                            : Constant
  179. Bit rate                                 : 448 kb/s
  180. Channel(s)                               : 6 channels
  181. Channel layout                           : L R C LFE Ls Rs
  182. Sampling rate                            : 48.0 kHz
  183. Frame rate                               : 31.250 FPS (1536 SPF)
  184. Bit depth                                : 16 bits
  185. Compression mode                         : Lossy
  186. Stream size                              : 477 MiB (1%)
  187. Title                                    : 2001.A.Space.Odyssey.1968.REMASTERED.1080p.BluRay.REMUX.AVC.DTS-HD.MA.5.1-FGT
  188. Language                                 : Italian
  189. Service kind                             : Complete Main
  190. Default                                  : No
  191. Forced                                   : No

  192. Audio #9
  193. ID                                       : 10
  194. Format                                   : AC-3
  195. Format/Info                              : Audio Coding 3
  196. Commercial name                          : Dolby Digital
  197. Codec ID                                 : A_AC3
  198. Duration                                 : 2 h 28 min
  199. Bit rate mode                            : Constant
  200. Bit rate                                 : 448 kb/s
  201. Channel(s)                               : 6 channels
  202. Channel layout                           : L R C LFE Ls Rs
  203. Sampling rate                            : 48.0 kHz
  204. Frame rate                               : 31.250 FPS (1536 SPF)
  205. Bit depth                                : 16 bits
  206. Compression mode                         : Lossy
  207. Stream size                              : 477 MiB (1%)
  208. Title                                    : 2001.A.Space.Odyssey.1968.REMASTERED.1080p.BluRay.REMUX.AVC.DTS-HD.MA.5.1-FGT
  209. Language                                 : Spanish
  210. Service kind                             : Complete Main
  211. Default                                  : No
  212. Forced                                   : No

  213. Audio #10
  214. ID                                       : 11
  215. Format                                   : AC-3
  216. Format/Info                              : Audio Coding 3
  217. Commercial name                          : Dolby Digital
  218. Codec ID                                 : A_AC3
  219. Duration                                 : 2 h 28 min
  220. Bit rate mode                            : Constant
  221. Bit rate                                 : 448 kb/s
  222. Channel(s)                               : 6 channels
  223. Channel layout                           : L R C LFE Ls Rs
  224. Sampling rate                            : 48.0 kHz
  225. Frame rate                               : 31.250 FPS (1536 SPF)
  226. Bit depth                                : 16 bits
  227. Compression mode                         : Lossy
  228. Stream size                              : 477 MiB (1%)
  229. Title                                    : 2001.A.Space.Odyssey.1968.REMASTERED.1080p.BluRay.REMUX.AVC.DTS-HD.MA.5.1-FGT
  230. Language                                 : Spanish
  231. Service kind                             : Complete Main
  232. Default                                  : No
  233. Forced                                   : No

  234. Audio #11
  235. ID                                       : 12
  236. Format                                   : AC-3
  237. Format/Info                              : Audio Coding 3
  238. Commercial name                          : Dolby Digital
  239. Codec ID                                 : A_AC3
  240. Duration                                 : 2 h 28 min
  241. Bit rate mode                            : Constant
  242. Bit rate                                 : 192 kb/s
  243. Channel(s)                               : 2 channels
  244. Channel layout                           : L R
  245. Sampling rate                            : 48.0 kHz
  246. Frame rate                               : 31.250 FPS (1536 SPF)
  247. Bit depth                                : 16 bits
  248. Compression mode                         : Lossy
  249. Stream size                              : 204 MiB (0%)
  250. Title                                    : 2001.A.Space.Odyssey.1968.REMASTERED.1080p.BluRay.REMUX.AVC.DTS-HD.MA.5.1-FGT
  251. Language                                 : Portuguese
  252. Service kind                             : Complete Main
  253. Default                                  : No
  254. Forced                                   : No

  255. Audio #12
  256. ID                                       : 13
  257. Format                                   : AC-3
  258. Format/Info                              : Audio Coding 3
  259. Commercial name                          : Dolby Digital
  260. Codec ID                                 : A_AC3
  261. Duration                                 : 2 h 28 min
  262. Bit rate mode                            : Constant
  263. Bit rate                                 : 192 kb/s
  264. Channel(s)                               : 2 channels
  265. Channel layout                           : L R
  266. Sampling rate                            : 48.0 kHz
  267. Frame rate                               : 31.250 FPS (1536 SPF)
  268. Bit depth                                : 16 bits
  269. Compression mode                         : Lossy
  270. Stream size                              : 204 MiB (0%)
  271. Title                                    : 2001.A.Space.Odyssey.1968.REMASTERED.1080p.BluRay.REMUX.AVC.DTS-HD.MA.5.1-FGT
  272. Language                                 : Polish
  273. Service kind                             : Complete Main
  274. Default                                  : No
  275. Forced                                   : No

  276. Audio #13
  277. ID                                       : 14
  278. Format                                   : AC-3
  279. Format/Info                              : Audio Coding 3
  280. Commercial name                          : Dolby Digital
  281. Codec ID                                 : A_AC3
  282. Duration                                 : 2 h 28 min
  283. Bit rate mode                            : Constant
  284. Bit rate                                 : 192 kb/s
  285. Channel(s)                               : 2 channels
  286. Channel layout                           : L R
  287. Sampling rate                            : 48.0 kHz
  288. Frame rate                               : 31.250 FPS (1536 SPF)
  289. Bit depth                                : 16 bits
  290. Compression mode                         : Lossy
  291. Stream size                              : 204 MiB (0%)
  292. Title                                    : 2001.A.Space.Odyssey.1968.REMASTERED.1080p.BluRay.REMUX.AVC.DTS-HD.MA.5.1-FGT
  293. Language                                 : English
  294. Service kind                             : Complete Main
  295. Default                                  : No
  296. Forced                                   : No

  297. Text #1
  298. ID                                       : 15
  299. Format                                   : PGS
  300. Muxing mode                              : zlib
  301. Codec ID                                 : S_HDMV/PGS
  302. Codec ID/Info                            : Picture based subtitle format used on BDs/HD-DVDs
  303. Duration                                 : 2 h 17 min
  304. Bit rate                                 : 15.1 kb/s
  305. Count of elements                        : 1334
  306. Stream size                              : 14.9 MiB (0%)
  307. Title                                    : English-PGS
  308. Language                                 : English
  309. Default                                  : Yes
  310. Forced                                   : No

  311. Text #2
  312. ID                                       : 16
  313. Format                                   : PGS
  314. Muxing mode                              : zlib
  315. Codec ID                                 : S_HDMV/PGS
  316. Codec ID/Info                            : Picture based subtitle format used on BDs/HD-DVDs
  317. Duration                                 : 2 h 20 min
  318. Bit rate                                 : 12.0 kb/s
  319. Count of elements                        : 1264
  320. Stream size                              : 12.0 MiB (0%)
  321. Title                                    : French-PGS
  322. Language                                 : French
  323. Default                                  : No
  324. Forced                                   : No

  325. Text #3
  326. ID                                       : 17
  327. Format                                   : PGS
  328. Muxing mode                              : zlib
  329. Codec ID                                 : S_HDMV/PGS
  330. Codec ID/Info                            : Picture based subtitle format used on BDs/HD-DVDs
  331. Duration                                 : 2 h 20 min
  332. Bit rate                                 : 16.3 kb/s
  333. Count of elements                        : 1316
  334. Stream size                              : 16.4 MiB (0%)
  335. Title                                    : German-PGS
  336. Language                                 : German
  337. Default                                  : No
  338. Forced                                   : No

  339. Text #4
  340. ID                                       : 18
  341. Format                                   : PGS
  342. Muxing mode                              : zlib
  343. Codec ID                                 : S_HDMV/PGS
  344. Codec ID/Info                            : Picture based subtitle format used on BDs/HD-DVDs
  345. Duration                                 : 2 h 20 min
  346. Bit rate                                 : 15.1 kb/s
  347. Count of elements                        : 1342
  348. Stream size                              : 15.2 MiB (0%)
  349. Title                                    : Italian-PGS
  350. Language                                 : Italian
  351. Default                                  : No
  352. Forced                                   : No

  353. Text #5
  354. ID                                       : 19
  355. Format                                   : PGS
  356. Muxing mode                              : zlib
  357. Codec ID                                 : S_HDMV/PGS
  358. Codec ID/Info                            : Picture based subtitle format used on BDs/HD-DVDs
  359. Duration                                 : 2 h 20 min
  360. Bit rate                                 : 13.4 kb/s
  361. Count of elements                        : 1288
  362. Stream size                              : 13.4 MiB (0%)
  363. Title                                    : Spanish-PGS
  364. Language                                 : Spanish
  365. Default                                  : No
  366. Forced                                   : No

  367. Text #6
  368. ID                                       : 20
  369. Format                                   : PGS
  370. Muxing mode                              : zlib
  371. Codec ID                                 : S_HDMV/PGS
  372. Codec ID/Info                            : Picture based subtitle format used on BDs/HD-DVDs
  373. Duration                                 : 2 h 19 min
  374. Bit rate                                 : 11.0 kb/s
  375. Count of elements                        : 900
  376. Stream size                              : 10.9 MiB (0%)
  377. Title                                    : Dutch-PGS
  378. Language                                 : Dutch
  379. Default                                  : No
  380. Forced                                   : No

  381. Text #7
  382. ID                                       : 21
  383. Format                                   : PGS
  384. Muxing mode                              : zlib
  385. Codec ID                                 : S_HDMV/PGS
  386. Codec ID/Info                            : Picture based subtitle format used on BDs/HD-DVDs
  387. Duration                                 : 2 h 20 min
  388. Bit rate                                 : 12.1 kb/s
  389. Count of elements                        : 1350
  390. Stream size                              : 12.2 MiB (0%)
  391. Title                                    : Chinese-PGS
  392. Language                                 : Chinese
  393. Default                                  : No
  394. Forced                                   : No

  395. Text #8
  396. ID                                       : 22
  397. Format                                   : PGS
  398. Muxing mode                              : zlib
  399. Codec ID                                 : S_HDMV/PGS
  400. Codec ID/Info                            : Picture based subtitle format used on BDs/HD-DVDs
  401. Duration                                 : 2 h 20 min
  402. Bit rate                                 : 13.0 kb/s
  403. Count of elements                        : 1326
  404. Stream size                              : 13.0 MiB (0%)
  405. Title                                    : Chinese-PGS
  406. Language                                 : Chinese
  407. Default                                  : No
  408. Forced                                   : No

  409. Text #9
  410. ID                                       : 23
  411. Format                                   : PGS
  412. Muxing mode                              : zlib
  413. Codec ID                                 : S_HDMV/PGS
  414. Codec ID/Info                            : Picture based subtitle format used on BDs/HD-DVDs
  415. Duration                                 : 2 h 20 min
  416. Bit rate                                 : 10.3 kb/s
  417. Count of elements                        : 1328
  418. Stream size                              : 10.3 MiB (0%)
  419. Title                                    : Korean-PGS
  420. Language                                 : Korean
  421. Default                                  : No
  422. Forced                                   : No

  423. Text #10
  424. ID                                       : 24
  425. Format                                   : PGS
  426. Muxing mode                              : zlib
  427. Codec ID                                 : S_HDMV/PGS
  428. Codec ID/Info                            : Picture based subtitle format used on BDs/HD-DVDs
  429. Duration                                 : 2 h 20 min
  430. Bit rate                                 : 12.1 kb/s
  431. Count of elements                        : 1272
  432. Stream size                              : 12.1 MiB (0%)
  433. Title                                    : Spanish-PGS
  434. Language                                 : Spanish
  435. Default                                  : No
  436. Forced                                   : No

  437. Text #11
  438. ID                                       : 25
  439. Format                                   : PGS
  440. Muxing mode                              : zlib
  441. Codec ID                                 : S_HDMV/PGS
  442. Codec ID/Info                            : Picture based subtitle format used on BDs/HD-DVDs
  443. Duration                                 : 2 h 20 min
  444. Bit rate                                 : 13.5 kb/s
  445. Count of elements                        : 1310
  446. Stream size                              : 13.5 MiB (0%)
  447. Title                                    : Portuguese-PGS
  448. Language                                 : Portuguese
  449. Default                                  : No
  450. Forced                                   : No

  451. Text #12
  452. ID                                       : 26
  453. Format                                   : PGS
  454. Muxing mode                              : zlib
  455. Codec ID                                 : S_HDMV/PGS
  456. Codec ID/Info                            : Picture based subtitle format used on BDs/HD-DVDs
  457. Duration                                 : 2 h 20 min
  458. Bit rate                                 : 7 350 b/s
  459. Count of elements                        : 1280
  460. Stream size                              : 7.38 MiB (0%)
  461. Title                                    : Arabic-PGS
  462. Language                                 : Arabic
  463. Default                                  : No
  464. Forced                                   : No

  465. Text #13
  466. ID                                       : 27
  467. Format                                   : PGS
  468. Muxing mode                              : zlib
  469. Codec ID                                 : S_HDMV/PGS
  470. Codec ID/Info                            : Picture based subtitle format used on BDs/HD-DVDs
  471. Duration                                 : 2 h 20 min
  472. Bit rate                                 : 13.1 kb/s
  473. Count of elements                        : 1290
  474. Stream size                              : 13.1 MiB (0%)
  475. Title                                    : Croatian-PGS
  476. Language                                 : Croatian
  477. Default                                  : No
  478. Forced                                   : No

  479. Text #14
  480. ID                                       : 28
  481. Format                                   : PGS
  482. Muxing mode                              : zlib
  483. Codec ID                                 : S_HDMV/PGS
  484. Codec ID/Info                            : Picture based subtitle format used on BDs/HD-DVDs
  485. Duration                                 : 2 h 20 min
  486. Bit rate                                 : 11.9 kb/s
  487. Count of elements                        : 1326
  488. Stream size                              : 11.9 MiB (0%)
  489. Title                                    : Czech-PGS
  490. Language                                 : Czech
  491. Default                                  : No
  492. Forced                                   : No

  493. Text #15
  494. ID                                       : 29
  495. Format                                   : PGS
  496. Muxing mode                              : zlib
  497. Codec ID                                 : S_HDMV/PGS
  498. Codec ID/Info                            : Picture based subtitle format used on BDs/HD-DVDs
  499. Duration                                 : 2 h 20 min
  500. Bit rate                                 : 10.1 kb/s
  501. Count of elements                        : 774
  502. Stream size                              : 10.1 MiB (0%)
  503. Title                                    : Danish-PGS
  504. Language                                 : Danish
  505. Default                                  : No
  506. Forced                                   : No

  507. Text #16
  508. ID                                       : 30
  509. Format                                   : PGS
  510. Muxing mode                              : zlib
  511. Codec ID                                 : S_HDMV/PGS
  512. Codec ID/Info                            : Picture based subtitle format used on BDs/HD-DVDs
  513. Duration                                 : 2 h 20 min
  514. Bit rate                                 : 9 768 b/s
  515. Count of elements                        : 750
  516. Stream size                              : 9.80 MiB (0%)
  517. Title                                    : Finnish-PGS
  518. Language                                 : Finnish
  519. Default                                  : No
  520. Forced                                   : No

  521. Text #17
  522. ID                                       : 31
  523. Format                                   : PGS
  524. Muxing mode                              : zlib
  525. Codec ID                                 : S_HDMV/PGS
  526. Codec ID/Info                            : Picture based subtitle format used on BDs/HD-DVDs
  527. Duration                                 : 2 h 20 min
  528. Bit rate                                 : 11.8 kb/s
  529. Count of elements                        : 1192
  530. Stream size                              : 11.8 MiB (0%)
  531. Title                                    : Greek-PGS
  532. Language                                 : Greek
  533. Default                                  : No
  534. Forced                                   : No

  535. Text #18
  536. ID                                       : 32
  537. Format                                   : PGS
  538. Muxing mode                              : zlib
  539. Codec ID                                 : S_HDMV/PGS
  540. Codec ID/Info                            : Picture based subtitle format used on BDs/HD-DVDs
  541. Duration                                 : 2 h 20 min
  542. Bit rate                                 : 8 357 b/s
  543. Count of elements                        : 1248
  544. Stream size                              : 8.38 MiB (0%)
  545. Title                                    : Hebrew-PGS
  546. Language                                 : Hebrew
  547. Default                                  : No
  548. Forced                                   : No

  549. Text #19
  550. ID                                       : 33
  551. Format                                   : PGS
  552. Muxing mode                              : zlib
  553. Codec ID                                 : S_HDMV/PGS
  554. Codec ID/Info                            : Picture based subtitle format used on BDs/HD-DVDs
  555. Duration                                 : 2 h 20 min
  556. Bit rate                                 : 13.0 kb/s
  557. Count of elements                        : 1328
  558. Stream size                              : 13.0 MiB (0%)
  559. Title                                    : Hungarian-PGS
  560. Language                                 : Hungarian
  561. Default                                  : No
  562. Forced                                   : No

  563. Text #20
  564. ID                                       : 34
  565. Format                                   : PGS
  566. Muxing mode                              : zlib
  567. Codec ID                                 : S_HDMV/PGS
  568. Codec ID/Info                            : Picture based subtitle format used on BDs/HD-DVDs
  569. Duration                                 : 2 h 19 min
  570. Bit rate                                 : 13.3 kb/s
  571. Count of elements                        : 1288
  572. Stream size                              : 13.2 MiB (0%)
  573. Title                                    : Icelandic-PGS
  574. Language                                 : Icelandic
  575. Default                                  : No
  576. Forced                                   : No

  577. Text #21
  578. ID                                       : 35
  579. Format                                   : PGS
  580. Muxing mode                              : zlib
  581. Codec ID                                 : S_HDMV/PGS
  582. Codec ID/Info                            : Picture based subtitle format used on BDs/HD-DVDs
  583. Duration                                 : 2 h 20 min
  584. Bit rate                                 : 9 972 b/s
  585. Count of elements                        : 884
  586. Stream size                              : 10.0 MiB (0%)
  587. Title                                    : Norwegian-PGS
  588. Language                                 : Norwegian
  589. Default                                  : No
  590. Forced                                   : No

  591. Text #22
  592. ID                                       : 36
  593. Format                                   : PGS
  594. Muxing mode                              : zlib
  595. Codec ID                                 : S_HDMV/PGS
  596. Codec ID/Info                            : Picture based subtitle format used on BDs/HD-DVDs
  597. Duration                                 : 2 h 20 min
  598. Bit rate                                 : 10.9 kb/s
  599. Count of elements                        : 1284
  600. Stream size                              : 10.9 MiB (0%)
  601. Title                                    : Polish-PGS
  602. Language                                 : Polish
  603. Default                                  : No
  604. Forced                                   : No

  605. Text #23
  606. ID                                       : 37
  607. Format                                   : PGS
  608. Muxing mode                              : zlib
  609. Codec ID                                 : S_HDMV/PGS
  610. Codec ID/Info                            : Picture based subtitle format used on BDs/HD-DVDs
  611. Duration                                 : 2 h 20 min
  612. Bit rate                                 : 14.6 kb/s
  613. Count of elements                        : 1292
  614. Stream size                              : 14.6 MiB (0%)
  615. Title                                    : Portuguese-PGS
  616. Language                                 : Portuguese
  617. Default                                  : No
  618. Forced                                   : No

  619. Text #24
  620. ID                                       : 38
  621. Format                                   : PGS
  622. Muxing mode                              : zlib
  623. Codec ID                                 : S_HDMV/PGS
  624. Codec ID/Info                            : Picture based subtitle format used on BDs/HD-DVDs
  625. Duration                                 : 2 h 20 min
  626. Bit rate                                 : 11.4 kb/s
  627. Count of elements                        : 1280
  628. Stream size                              : 11.4 MiB (0%)
  629. Title                                    : Romanian-PGS
  630. Language                                 : Romanian
  631. Default                                  : No
  632. Forced                                   : No

  633. Text #25
  634. ID                                       : 39
  635. Format                                   : PGS
  636. Muxing mode                              : zlib
  637. Codec ID                                 : S_HDMV/PGS
  638. Codec ID/Info                            : Picture based subtitle format used on BDs/HD-DVDs
  639. Duration                                 : 2 h 20 min
  640. Bit rate                                 : 14.5 kb/s
  641. Count of elements                        : 1304
  642. Stream size                              : 14.5 MiB (0%)
  643. Title                                    : Russian-PGS
  644. Language                                 : Russian
  645. Default                                  : No
  646. Forced                                   : No

  647. Text #26
  648. ID                                       : 40
  649. Format                                   : PGS
  650. Muxing mode                              : zlib
  651. Codec ID                                 : S_HDMV/PGS
  652. Codec ID/Info                            : Picture based subtitle format used on BDs/HD-DVDs
  653. Duration                                 : 2 h 20 min
  654. Bit rate                                 : 9 079 b/s
  655. Count of elements                        : 760
  656. Stream size                              : 9.11 MiB (0%)
  657. Title                                    : Swedish-PGS
  658. Language                                 : Swedish
  659. Default                                  : No
  660. Forced                                   : No

  661. Text #27
  662. ID                                       : 41
  663. Format                                   : PGS
  664. Muxing mode                              : zlib
  665. Codec ID                                 : S_HDMV/PGS
  666. Codec ID/Info                            : Picture based subtitle format used on BDs/HD-DVDs
  667. Duration                                 : 2 h 19 min
  668. Bit rate                                 : 13.4 kb/s
  669. Count of elements                        : 1328
  670. Stream size                              : 13.4 MiB (0%)
  671. Title                                    : Thai-PGS
  672. Language                                 : Thai
  673. Default                                  : No
  674. Forced                                   : No

  675. Text #28
  676. ID                                       : 42
  677. Format                                   : PGS
  678. Muxing mode                              : zlib
  679. Codec ID                                 : S_HDMV/PGS
  680. Codec ID/Info                            : Picture based subtitle format used on BDs/HD-DVDs
  681. Duration                                 : 2 h 19 min
  682. Bit rate                                 : 13.2 kb/s
  683. Count of elements                        : 1288
  684. Stream size                              : 13.2 MiB (0%)
  685. Title                                    : Turkish-PGS
  686. Language                                 : Turkish
  687. Default                                  : No
  688. Forced                                   : No

  689. Text #29
  690. ID                                       : 43
  691. Format                                   : PGS
  692. Muxing mode                              : zlib
  693. Codec ID                                 : S_HDMV/PGS
  694. Codec ID/Info                            : Picture based subtitle format used on BDs/HD-DVDs
  695. Duration                                 : 2 h 24 min
  696. Bit rate                                 : 35.1 kb/s
  697. Count of elements                        : 3293
  698. Stream size                              : 36.3 MiB (0%)
  699. Title                                    : Chinese-PGS
  700. Language                                 : Chinese
  701. Default                                  : No
  702. Forced                                   : No

  703. Menu
  704. 00:00:00.000                             : en:Chapter 01
  705. 00:02:57.093                             : en:Chapter 02
  706. 00:04:39.028                             : en:Chapter 03
  707. 00:11:39.865                             : en:Chapter 04
  708. 00:16:57.891                             : en:Chapter 05
  709. 00:19:52.941                             : en:Chapter 06
  710. 00:25:28.944                             : en:Chapter 07
  711. 00:27:38.073                             : en:Chapter 08
  712. 00:29:29.434                             : en:Chapter 09
  713. 00:33:46.774                             : en:Chapter 10
  714. 00:41:08.549                             : en:Chapter 11
  715. 00:45:37.401                             : en:Chapter 12
  716. 00:50:56.470                             : en:Chapter 13
  717. 00:54:41.695                             : en:Chapter 14
  718. 00:58:33.635                             : en:Chapter 15
  719. 01:03:55.957                             : en:Chapter 16
  720. 01:06:05.211                             : en:Chapter 17
  721. 01:12:10.576                             : en:Chapter 18
  722. 01:18:51.768                             : en:Chapter 19
  723. 01:23:01.434                             : en:Chapter 20
  724. 01:27:02.133                             : en:Chapter 21
  725. 01:27:49.180                             : en:Chapter 22
  726. 01:30:07.652                             : en:Chapter 23
  727. 01:32:50.773                             : en:Chapter 24
  728. 01:38:35.492                             : en:Chapter 25
  729. 01:40:46.999                             : en:Chapter 26
  730. 01:45:35.454                             : en:Chapter 27
  731. 01:49:41.449                             : en:Chapter 28
  732. 01:55:19.579                             : en:Chapter 29
  733. 01:57:06.060                             : en:Chapter 30
  734. 02:01:28.114                             : en:Chapter 31
  735. 02:11:33.302                             : en:Chapter 32
  736. 02:17:57.519                             : en:Chapter 33
  737. 02:20:33.341                             : en:Chapter 34
复制代码

复制代码

2001太空周游/2001:星际周游 2001.A.Space.Odyssey.1968.REMASTERED.1080p.BluRay.REMUX.AVC.DTS-HD.MA.5.1-FGT 41.17GB-2.png 2001太空周游/2001:星际周游 2001.A.Space.Odyssey.1968.REMASTERED.1080p.BluRay.REMUX.AVC.DTS-HD.MA.5.1-FGT 41.17GB-3.png 2001太空周游/2001:星际周游 2001.A.Space.Odyssey.1968.REMASTERED.1080p.BluRay.REMUX.AVC.DTS-HD.MA.5.1-FGT 41.17GB-4.png




回复

使用道具 举报

懒得打字嘛,点击右侧快捷回复 【右侧内容,后台自定义】
您需要登录后才可以回帖 登录 | 立即注册

本版积分规则

QQ|Archiver|手机版|小黑屋|中国高清网 |网站地图

GMT+8, 2019-3-22 09:52 , Processed in 0.331604 second(s), 41 queries .

Powered by HDchina X3.4

Copyright 2017-2018©HDchina.All right reserved

返回顶部 联系我们