你所知道的4K资源这里全部都有 4K电影 | 4K视频 | 4K壁纸 | 4K MV 怎么播放4K视频 | 4K电视演示片

教你玩转4K私人与家庭影院存储 NAS组装 | 黑群辉 家庭/影院Nas论坛

4K家庭影院信号源与视频设备知识 4K蓝光高清播放机 - 那个品牌好? 4K投影机论坛 | 4K电视机论坛

手把手教你搭建属于自己的家庭影院 4K家庭影院案例 | 家庭影院音频 4K家庭影院论坛

查看: 97|回复: 0

[科幻片] 深海圆疑/地动天惊 Sphere.1998.1080p.BluRay.REMUX.VC-1.TrueHD.5.1-FGT 24.74GB

[复制链接]

 成长值: 710

级别:资源管理组

注册时间
2017-10-20
最后登录
2019-3-22
听众
0
收听
0
主题
76497
蓝光币
134745 枚
贡献
146306 点
发表于 2018-10-27 23:15:51 | 显示全部楼层 |阅读模式

深海圆疑/地震天惊 Sphere.1998.1080p.BluRay.REMUX.VC-1.TrueHD.5.1-FGT 24.74GB-1.jpg
◎译  名 深海圆疑 / 地震天惊 / 球体 / 天体
◎片  名 深海圆疑 Sphere
◎年  代 1998
◎国  家 美国
◎类  别 科幻 / 悬疑 / 惊悚 / 可骇
◎语  言 英语
◎上映日期 1998-02-13
◎IMDb评分  6.1/10 from 91,226 users
◎IMDb链接  http://www.imdb.com/title/tt0120184/
◎豆瓣评分 7.0/10 from 6804 users
◎豆瓣链接 https://movie.douban.com/subject/1293433/
◎片  长 134 分钟
◎导  演 巴瑞·莱文森
◎主  演 达斯汀·霍夫曼
      莎朗·斯通
      塞缪尔·杰克逊
      彼德·考约特
      列维·施瑞博尔
      奎恩·拉提法

◎简  介 

  南承平洋1000尺的深海海底,美国政府发现了一艘已有300年历史的奥秘太空船。政府立即组成了一队由心理学家诺曼·古德曼(达斯汀·霍夫曼 Dustin Hoffman饰)、生物化学家贝丝·哈波琳(莎朗·斯通 Sharon Stone饰)和数学家哈瑞·亚当斯(塞缪尔·杰克逊 Samuel L. Jackson饰)这三位顶尖科学家组成的科学小组前往当地观察。他们操纵高科技的尝试艇深入海底停止探测。但是船体内部的一个庞大而怪异的球状体,具有着洞悉每小我的心里天下的强大魔力,它似乎能控制每小我的思惟和行为。更糟的是,一个不明海底生物也向尝试艇倡议了进犯。
  由美国著名导演、编剧巴瑞·莱文森执导的科幻悬疑电影《深海圆疑》,改编自迈克尔·克莱顿于1987年出书的同名小说。本片巨星云集,达斯汀·霍夫曼、莎朗·斯通 、塞缪尔·杰克逊等大牌明星携手表演这部惊悚科幻影片。


  1. Video
  2. ID                                       : 1
  3. Format                                   : VC-1
  4. Format profile                           : [url=/cdn-cgi/l/email-protection][email protected][/url]
  5. Codec ID                                 : V_MS/VFW/FOURCC / WVC1
  6. Codec ID/Hint                            : Microsoft
  7. Duration                                 : 2 h 14 min
  8. Bit rate                                 : 23.0 Mb/s
  9. Width                                    : 1 920 pixels
  10. Height                                   : 1 080 pixels
  11. Display aspect ratio                     : 16:9
  12. Frame rate mode                          : Constant
  13. Frame rate                               : 23.976 (24000/1001) FPS
  14. Color space                              : YUV
  15. Chroma subsampling                       : 4:2:0
  16. Bit depth                                : 8 bits
  17. Scan type                                : Progressive
  18. Compression mode                         : Lossy
  19. Bits/(Pixel*Frame)                       : 0.462
  20. Stream size                              : 21.5 GiB (87%)
  21. Title                                    : Sphere.1998.1080p.BluRay.REMUX.VC-1.TrueHD.5.1-FGT
  22. Language                                 : English
  23. Default                                  : No
  24. Forced                                   : No

  25. Audio #1
  26. ID                                       : 2
  27. Format                                   : MLP FBA
  28. Format/Info                              : Meridian Lossless Packing FBA
  29. Commercial name                          : Dolby TrueHD
  30. Codec ID                                 : A_TRUEHD
  31. Duration                                 : 2 h 14 min
  32. Bit rate mode                            : Variable
  33. Bit rate                                 : 1 603 kb/s
  34. Maximum bit rate                         : 2 871 kb/s
  35. Channel(s)                               : 6 channels
  36. Channel layout                           : L R C LFE Ls Rs
  37. Sampling rate                            : 48.0 kHz
  38. Frame rate                               : 1 200.000 FPS (40 SPF)
  39. Compression mode                         : Lossless
  40. Stream size                              : 1.50 GiB (6%)
  41. Title                                    : Sphere.1998.1080p.BluRay.REMUX.VC-1.TrueHD.5.1-FGT
  42. Language                                 : English
  43. Default                                  : Yes
  44. Forced                                   : No

  45. Audio #2
  46. ID                                       : 3
  47. Format                                   : AC-3
  48. Format/Info                              : Audio Coding 3
  49. Commercial name                          : Dolby Digital
  50. Codec ID                                 : A_AC3
  51. Duration                                 : 2 h 14 min
  52. Bit rate mode                            : Constant
  53. Bit rate                                 : 640 kb/s
  54. Channel(s)                               : 6 channels
  55. Channel layout                           : L R C LFE Ls Rs
  56. Sampling rate                            : 48.0 kHz
  57. Frame rate                               : 31.250 FPS (1536 SPF)
  58. Bit depth                                : 16 bits
  59. Compression mode                         : Lossy
  60. Stream size                              : 614 MiB (2%)
  61. Title                                    : Sphere.1998.1080p.BluRay.REMUX.VC-1.TrueHD.5.1-FGT
  62. Language                                 : English
  63. Service kind                             : Complete Main
  64. Default                                  : No
  65. Forced                                   : No

  66. Audio #3
  67. ID                                       : 4
  68. Format                                   : AC-3
  69. Format/Info                              : Audio Coding 3
  70. Commercial name                          : Dolby Digital
  71. Codec ID                                 : A_AC3
  72. Duration                                 : 2 h 14 min
  73. Bit rate mode                            : Constant
  74. Bit rate                                 : 640 kb/s
  75. Channel(s)                               : 6 channels
  76. Channel layout                           : L R C LFE Ls Rs
  77. Sampling rate                            : 48.0 kHz
  78. Frame rate                               : 31.250 FPS (1536 SPF)
  79. Bit depth                                : 16 bits
  80. Compression mode                         : Lossy
  81. Stream size                              : 614 MiB (2%)
  82. Title                                    : Sphere.1998.1080p.BluRay.REMUX.VC-1.TrueHD.5.1-FGT
  83. Language                                 : Japanese
  84. Service kind                             : Complete Main
  85. Default                                  : No
  86. Forced                                   : No

  87. Audio #4
  88. ID                                       : 5
  89. Format                                   : AC-3
  90. Format/Info                              : Audio Coding 3
  91. Commercial name                          : Dolby Digital
  92. Codec ID                                 : A_AC3
  93. Duration                                 : 2 h 14 min
  94. Bit rate mode                            : Constant
  95. Bit rate                                 : 192 kb/s
  96. Channel(s)                               : 2 channels
  97. Channel layout                           : L R
  98. Sampling rate                            : 48.0 kHz
  99. Frame rate                               : 31.250 FPS (1536 SPF)
  100. Bit depth                                : 16 bits
  101. Compression mode                         : Lossy
  102. Stream size                              : 184 MiB (1%)
  103. Title                                    : Sphere.1998.1080p.BluRay.REMUX.VC-1.TrueHD.5.1-FGT
  104. Language                                 : English
  105. Service kind                             : Complete Main
  106. Default                                  : No
  107. Forced                                   : No

  108. Audio #5
  109. ID                                       : 6
  110. Format                                   : AC-3
  111. Format/Info                              : Audio Coding 3
  112. Commercial name                          : Dolby Digital
  113. Codec ID                                 : A_AC3
  114. Duration                                 : 2 h 14 min
  115. Bit rate mode                            : Constant
  116. Bit rate                                 : 192 kb/s
  117. Channel(s)                               : 2 channels
  118. Channel layout                           : L R
  119. Sampling rate                            : 48.0 kHz
  120. Frame rate                               : 31.250 FPS (1536 SPF)
  121. Bit depth                                : 16 bits
  122. Compression mode                         : Lossy
  123. Stream size                              : 184 MiB (1%)
  124. Title                                    : Sphere.1998.1080p.BluRay.REMUX.VC-1.TrueHD.5.1-FGT
  125. Language                                 : French
  126. Service kind                             : Complete Main
  127. Default                                  : No
  128. Forced                                   : No

  129. Text #1
  130. ID                                       : 7
  131. Format                                   : PGS
  132. Muxing mode                              : zlib
  133. Codec ID                                 : S_HDMV/PGS
  134. Codec ID/Info                            : Picture based subtitle format used on BDs/HD-DVDs
  135. Duration                                 : 2 h 10 min
  136. Bit rate                                 : 40.6 kb/s
  137. Count of elements                        : 3774
  138. Stream size                              : 37.9 MiB (0%)
  139. Title                                    : English-PGS
  140. Language                                 : English
  141. Default                                  : Yes
  142. Forced                                   : No

  143. Text #2
  144. ID                                       : 8
  145. Format                                   : PGS
  146. Muxing mode                              : zlib
  147. Codec ID                                 : S_HDMV/PGS
  148. Codec ID/Info                            : Picture based subtitle format used on BDs/HD-DVDs
  149. Duration                                 : 2 h 6 min
  150. Bit rate                                 : 29.9 kb/s
  151. Count of elements                        : 3770
  152. Stream size                              : 27.0 MiB (0%)
  153. Title                                    : Japanese-PGS
  154. Language                                 : Japanese
  155. Default                                  : No
  156. Forced                                   : No

  157. Text #3
  158. ID                                       : 9
  159. Format                                   : PGS
  160. Muxing mode                              : zlib
  161. Codec ID                                 : S_HDMV/PGS
  162. Codec ID/Info                            : Picture based subtitle format used on BDs/HD-DVDs
  163. Duration                                 : 2 h 10 min
  164. Bit rate                                 : 39.4 kb/s
  165. Count of elements                        : 4023
  166. Stream size                              : 36.7 MiB (0%)
  167. Title                                    : Japanese-PGS
  168. Language                                 : Japanese
  169. Default                                  : No
  170. Forced                                   : No

  171. Text #4
  172. ID                                       : 10
  173. Format                                   : PGS
  174. Muxing mode                              : zlib
  175. Codec ID                                 : S_HDMV/PGS
  176. Codec ID/Info                            : Picture based subtitle format used on BDs/HD-DVDs
  177. Duration                                 : 1 h 58 min
  178. Bit rate                                 : 1 261 b/s
  179. Count of elements                        : 453
  180. Stream size                              : 1.07 MiB (0%)
  181. Title                                    : Japanese-FORCED-PGS
  182. Language                                 : Japanese
  183. Default                                  : No
  184. Forced                                   : No

  185. Text #5
  186. ID                                       : 11
  187. Format                                   : PGS
  188. Muxing mode                              : zlib
  189. Codec ID                                 : S_HDMV/PGS
  190. Codec ID/Info                            : Picture based subtitle format used on BDs/HD-DVDs
  191. Duration                                 : 2 h 10 min
  192. Bit rate                                 : 29.1 kb/s
  193. Count of elements                        : 3510
  194. Stream size                              : 27.2 MiB (0%)
  195. Title                                    : French-PGS
  196. Language                                 : French
  197. Default                                  : No
  198. Forced                                   : No

  199. Text #6
  200. ID                                       : 12
  201. Format                                   : PGS
  202. Muxing mode                              : zlib
  203. Codec ID                                 : S_HDMV/PGS
  204. Codec ID/Info                            : Picture based subtitle format used on BDs/HD-DVDs
  205. Duration                                 : 2 h 13 min
  206. Bit rate                                 : 33.8 kb/s
  207. Count of elements                        : 3654
  208. Stream size                              : 32.2 MiB (0%)
  209. Title                                    : Spanish-PGS
  210. Language                                 : Spanish
  211. Default                                  : No
  212. Forced                                   : No

  213. Menu
  214. 00:00:00.000                             : en:Chapter 01
  215. 00:02:52.714                             : en:Chapter 02
  216. 00:04:46.869                             : en:Chapter 03
  217. 00:07:20.773                             : en:Chapter 04
  218. 00:10:07.732                             : en:Chapter 05
  219. 00:13:24.970                             : en:Chapter 06
  220. 00:18:27.773                             : en:Chapter 07
  221. 00:20:14.421                             : en:Chapter 08
  222. 00:24:32.387                             : en:Chapter 09
  223. 00:27:04.247                             : en:Chapter 10
  224. 00:30:23.738                             : en:Chapter 11
  225. 00:32:40.375                             : en:Chapter 12
  226. 00:34:39.035                             : en:Chapter 13
  227. 00:37:25.826                             : en:Chapter 14
  228. 00:39:49.220                             : en:Chapter 15
  229. 00:42:32.925                             : en:Chapter 16
  230. 00:46:14.062                             : en:Chapter 17
  231. 00:50:44.458                             : en:Chapter 18
  232. 00:52:29.312                             : en:Chapter 19
  233. 00:57:09.008                             : en:Chapter 20
  234. 00:58:29.380                             : en:Chapter 21
  235. 01:04:11.639                             : en:Chapter 22
  236. 01:07:29.879                             : en:Chapter 23
  237. 01:09:45.306                             : en:Chapter 24
  238. 01:11:50.889                             : en:Chapter 25
  239. 01:15:41.912                             : en:Chapter 26
  240. 01:17:32.981                             : en:Chapter 27
  241. 01:20:56.393                             : en:Chapter 28
  242. 01:23:28.336                             : en:Chapter 29
  243. 01:26:42.614                             : en:Chapter 30
  244. 01:28:38.938                             : en:Chapter 31
  245. 01:34:18.486                             : en:Chapter 32
  246. 01:35:49.827                             : en:Chapter 33
  247. 01:38:50.257                             : en:Chapter 34
  248. 01:41:50.771                             : en:Chapter 35
  249. 01:43:59.524                             : en:Chapter 36
  250. 01:46:06.109                             : en:Chapter 37
  251. 01:52:36.833                             : en:Chapter 38
  252. 01:57:23.036                             : en:Chapter 39
  253. 02:01:19.230                             : en:Chapter 40
  254. 02:02:58.954                             : en:Chapter 41
  255. 02:07:05.200                             : en:Chapter 42
  256. 02:10:32.825                             : en:Chapter 43
复制代码

复制代码

深海圆疑/地震天惊 Sphere.1998.1080p.BluRay.REMUX.VC-1.TrueHD.5.1-FGT 24.74GB-2.png 深海圆疑/地震天惊 Sphere.1998.1080p.BluRay.REMUX.VC-1.TrueHD.5.1-FGT 24.74GB-3.png 深海圆疑/地震天惊 Sphere.1998.1080p.BluRay.REMUX.VC-1.TrueHD.5.1-FGT 24.74GB-4.png





回复

使用道具 举报

懒得打字嘛,点击右侧快捷回复 【右侧内容,后台自定义】
您需要登录后才可以回帖 登录 | 立即注册

本版积分规则

QQ|Archiver|手机版|小黑屋|中国高清网 |网站地图

GMT+8, 2019-3-22 10:49 , Processed in 0.283871 second(s), 42 queries .

Powered by HDchina X3.4

Copyright 2017-2018©HDchina.All right reserved

返回顶部 联系我们