你所知道的4K资源这里全部都有 4K电影 | 4K视频 | 4K壁纸 | 4K MV 怎么播放4K视频 | 4K电视演示片

教你玩转4K私人与家庭影院存储 NAS组装 | 黑群辉 家庭/影院Nas论坛

4K家庭影院信号源与视频设备知识 4K蓝光高清播放机 - 那个品牌好? 4K投影机论坛 | 4K电视机论坛

手把手教你搭建属于自己的家庭影院 4K家庭影院案例 | 家庭影院音频 4K家庭影院论坛

查看: 116|回复: 0

[科幻片] 黑暗心灵/暗黑之心 The.Darkest.Minds.2018.1080p.BluRay.REMUX.AVC.DTS-HD.MA.7.1-FGT 29.17GB

[复制链接]

 成长值: 130

级别:资源管理组

UID
1
注册时间
2017-10-20
最后登录
2019-1-22
听众
0
收听
0
主题
73996
蓝光币
116844 枚
贡献
143805 点
发表于 2018-10-25 22:30:03 | 显示全部楼层 |阅读模式

黑暗心灵/暗黑之心 The.Darkest.Minds.2018.1080p.BluRay.REMUX.AVC.DTS-HD.MA.7.1-FGT 29.17GB-1.jpg
◎译  名 黑暗心灵 / 暗黑之心(港/台)
◎片  名 黑暗心灵 The Darkest Minds
◎年  代 2018
◎国  家 美国
◎类  别 科幻 / 惊悚
◎语  言 英语
◎上映日期 2018-08-03(美国)
◎IMDb评分  5.6/10 from 10,740 users
◎IMDb链接  http://www.imdb.com/title/tt4073790/
◎豆瓣评分 5.2/10 from 716 users
◎豆瓣链接 https://movie.douban.com/subject/26288143/
◎片  长 104分钟
◎导  演 吕寅荣
◎主  演 阿曼德拉·斯坦伯格
      曼迪·摩尔
      格温多兰·克里斯蒂
      布莱德利·惠特福德
      哈里斯·迪金森
      马克·奥布莱恩
      韦德·威廉姆斯
      华莱士·朗翰
      帕特里克·吉布森
      高顿·布鲁克斯
      司盖兰·布鲁克斯
      凯萨琳·戴尔
      米娅·切赫
      佩顿·威奇
      凯蕾·里维拉
      查尔斯·格林
      卡尔森·霍尔姆斯
      莉娅·朱厄特
      盖奇·劳森

◎简  介 

  基于Alexandra Bracken所著同名畅销青少年小说,报告在一场疾病夺走了美国98%的儿童的生命后,残剩的2%成长出了超才能,他们被安置在拘留营中。一位16岁女孩逃离了营地,加入一群青少年的团队,躲避政府的追捕,踏上奇异冒险旅程。


  1. Video
  2. ID                                       : 1
  3. Format                                   : AVC
  4. Format/Info                              : Advanced Video Codec
  5. Format profile                           : [url=/cdn-cgi/l/email-protection][email protected][/url]
  6. Format settings                          : CABAC / 4 Ref Frames
  7. Format settings, CABAC                   : Yes
  8. Format settings, ReFrames                : 4 frames
  9. Codec ID                                 : V_MPEG4/ISO/AVC
  10. Duration                                 : 1 h 43 min
  11. Bit rate mode                            : Variable
  12. Bit rate                                 : 28.3 Mb/s
  13. Maximum bit rate                         : 30.0 Mb/s
  14. Width                                    : 1 920 pixels
  15. Height                                   : 1 080 pixels
  16. Display aspect ratio                     : 16:9
  17. Frame rate mode                          : Constant
  18. Frame rate                               : 23.976 (24000/1001) FPS
  19. Color space                              : YUV
  20. Chroma subsampling                       : 4:2:0
  21. Bit depth                                : 8 bits
  22. Scan type                                : Progressive
  23. Bits/(Pixel*Frame)                       : 0.570
  24. Stream size                              : 20.5 GiB (70%)
  25. Title                                    : The.Darkest.Minds.2018.1080p.BluRay.REMUX.AVC.DTS-HD.MA.7.1-FGT
  26. Language                                 : English
  27. Default                                  : No
  28. Forced                                   : No

  29. Audio #1
  30. ID                                       : 2
  31. Format                                   : DTS ES XLL
  32. Format/Info                              : Digital Theater Systems
  33. Commercial name                          : DTS-HD Master Audio
  34. Codec ID                                 : A_DTS
  35. Duration                                 : 1 h 43 min
  36. Bit rate mode                            : Variable
  37. Bit rate                                 : 4 470 kb/s
  38. Channel(s)                               : 8 channels
  39. Channel layout                           : C L R Ls Rs LFE Lb Rb
  40. Sampling rate                            : 48.0 kHz
  41. Frame rate                               : 93.750 FPS (512 SPF)
  42. Bit depth                                : 24 bits
  43. Compression mode                         : Lossless
  44. Stream size                              : 3.24 GiB (11%)
  45. Title                                    : The.Darkest.Minds.2018.1080p.BluRay.REMUX.AVC.DTS-HD.MA.7.1-FGT
  46. Language                                 : English
  47. Default                                  : Yes
  48. Forced                                   : No

  49. Audio #2
  50. ID                                       : 3
  51. Format                                   : DTS ES
  52. Format/Info                              : Digital Theater Systems
  53. Commercial name                          : DTS-ES Matrix
  54. Codec ID                                 : A_DTS
  55. Duration                                 : 1 h 43 min
  56. Bit rate mode                            : Constant
  57. Bit rate                                 : 1 509 kb/s
  58. Channel(s)                               : 6 channels
  59. Channel(s)_Original                      : 7 channels
  60. Channel layout                           : C L R Ls Rs Cb LFE
  61. Sampling rate                            : 48.0 kHz
  62. Frame rate                               : 93.750 FPS (512 SPF)
  63. Bit depth                                : 24 bits
  64. Compression mode                         : Lossy
  65. Stream size                              : 1.09 GiB (4%)
  66. Title                                    : The.Darkest.Minds.2018.1080p.BluRay.REMUX.AVC.DTS-HD.MA.7.1-FGT
  67. Language                                 : English
  68. Default                                  : No
  69. Forced                                   : No

  70. Audio #3
  71. ID                                       : 4
  72. Format                                   : AC-3
  73. Format/Info                              : Audio Coding 3
  74. Commercial name                          : Dolby Digital
  75. Codec ID                                 : A_AC3
  76. Duration                                 : 1 h 43 min
  77. Bit rate mode                            : Constant
  78. Bit rate                                 : 448 kb/s
  79. Channel(s)                               : 6 channels
  80. Channel layout                           : L R C LFE Ls Rs
  81. Sampling rate                            : 48.0 kHz
  82. Frame rate                               : 31.250 FPS (1536 SPF)
  83. Bit depth                                : 16 bits
  84. Compression mode                         : Lossy
  85. Stream size                              : 333 MiB (1%)
  86. Title                                    : The.Darkest.Minds.2018.1080p.BluRay.REMUX.AVC.DTS-HD.MA.7.1-FGT
  87. Language                                 : English
  88. Service kind                             : Complete Main
  89. Default                                  : No
  90. Forced                                   : No

  91. Audio #4
  92. ID                                       : 5
  93. Format                                   : AC-3
  94. Format/Info                              : Audio Coding 3
  95. Commercial name                          : Dolby Digital
  96. Codec ID                                 : A_AC3
  97. Duration                                 : 1 h 43 min
  98. Bit rate mode                            : Constant
  99. Bit rate                                 : 448 kb/s
  100. Channel(s)                               : 6 channels
  101. Channel layout                           : L R C LFE Ls Rs
  102. Sampling rate                            : 48.0 kHz
  103. Frame rate                               : 31.250 FPS (1536 SPF)
  104. Bit depth                                : 16 bits
  105. Compression mode                         : Lossy
  106. Stream size                              : 333 MiB (1%)
  107. Title                                    : The.Darkest.Minds.2018.1080p.BluRay.REMUX.AVC.DTS-HD.MA.7.1-FGT
  108. Language                                 : Spanish
  109. Service kind                             : Complete Main
  110. Default                                  : No
  111. Forced                                   : No

  112. Audio #5
  113. ID                                       : 6
  114. Format                                   : AC-3
  115. Format/Info                              : Audio Coding 3
  116. Commercial name                          : Dolby Digital
  117. Codec ID                                 : A_AC3
  118. Duration                                 : 1 h 43 min
  119. Bit rate mode                            : Constant
  120. Bit rate                                 : 448 kb/s
  121. Channel(s)                               : 6 channels
  122. Channel layout                           : L R C LFE Ls Rs
  123. Sampling rate                            : 48.0 kHz
  124. Frame rate                               : 31.250 FPS (1536 SPF)
  125. Bit depth                                : 16 bits
  126. Compression mode                         : Lossy
  127. Stream size                              : 333 MiB (1%)
  128. Title                                    : The.Darkest.Minds.2018.1080p.BluRay.REMUX.AVC.DTS-HD.MA.7.1-FGT
  129. Language                                 : French
  130. Service kind                             : Complete Main
  131. Default                                  : No
  132. Forced                                   : No

  133. Audio #6
  134. ID                                       : 7
  135. Format                                   : AC-3
  136. Format/Info                              : Audio Coding 3
  137. Commercial name                          : Dolby Digital
  138. Codec ID                                 : A_AC3
  139. Duration                                 : 1 h 43 min
  140. Bit rate mode                            : Constant
  141. Bit rate                                 : 448 kb/s
  142. Channel(s)                               : 6 channels
  143. Channel layout                           : L R C LFE Ls Rs
  144. Sampling rate                            : 48.0 kHz
  145. Frame rate                               : 31.250 FPS (1536 SPF)
  146. Bit depth                                : 16 bits
  147. Compression mode                         : Lossy
  148. Stream size                              : 333 MiB (1%)
  149. Title                                    : The.Darkest.Minds.2018.1080p.BluRay.REMUX.AVC.DTS-HD.MA.7.1-FGT
  150. Language                                 : Portuguese
  151. Service kind                             : Complete Main
  152. Default                                  : No
  153. Forced                                   : No

  154. Audio #7
  155. ID                                       : 8
  156. Format                                   : AC-3
  157. Format/Info                              : Audio Coding 3
  158. Commercial name                          : Dolby Digital
  159. Codec ID                                 : A_AC3
  160. Duration                                 : 1 h 43 min
  161. Bit rate mode                            : Constant
  162. Bit rate                                 : 448 kb/s
  163. Channel(s)                               : 6 channels
  164. Channel layout                           : L R C LFE Ls Rs
  165. Sampling rate                            : 48.0 kHz
  166. Frame rate                               : 31.250 FPS (1536 SPF)
  167. Bit depth                                : 16 bits
  168. Compression mode                         : Lossy
  169. Stream size                              : 333 MiB (1%)
  170. Title                                    : The.Darkest.Minds.2018.1080p.BluRay.REMUX.AVC.DTS-HD.MA.7.1-FGT
  171. Language                                 : Czech
  172. Service kind                             : Complete Main
  173. Default                                  : No
  174. Forced                                   : No

  175. Audio #8
  176. ID                                       : 9
  177. Format                                   : AC-3
  178. Format/Info                              : Audio Coding 3
  179. Commercial name                          : Dolby Digital
  180. Codec ID                                 : A_AC3
  181. Duration                                 : 1 h 43 min
  182. Bit rate mode                            : Constant
  183. Bit rate                                 : 448 kb/s
  184. Channel(s)                               : 6 channels
  185. Channel layout                           : L R C LFE Ls Rs
  186. Sampling rate                            : 48.0 kHz
  187. Frame rate                               : 31.250 FPS (1536 SPF)
  188. Bit depth                                : 16 bits
  189. Compression mode                         : Lossy
  190. Stream size                              : 333 MiB (1%)
  191. Title                                    : The.Darkest.Minds.2018.1080p.BluRay.REMUX.AVC.DTS-HD.MA.7.1-FGT
  192. Language                                 : Hindi
  193. Service kind                             : Complete Main
  194. Default                                  : No
  195. Forced                                   : No

  196. Audio #9
  197. ID                                       : 10
  198. Format                                   : AC-3
  199. Format/Info                              : Audio Coding 3
  200. Commercial name                          : Dolby Digital
  201. Codec ID                                 : A_AC3
  202. Duration                                 : 1 h 43 min
  203. Bit rate mode                            : Constant
  204. Bit rate                                 : 448 kb/s
  205. Channel(s)                               : 6 channels
  206. Channel layout                           : L R C LFE Ls Rs
  207. Sampling rate                            : 48.0 kHz
  208. Frame rate                               : 31.250 FPS (1536 SPF)
  209. Bit depth                                : 16 bits
  210. Compression mode                         : Lossy
  211. Stream size                              : 333 MiB (1%)
  212. Title                                    : The.Darkest.Minds.2018.1080p.BluRay.REMUX.AVC.DTS-HD.MA.7.1-FGT
  213. Language                                 : Urdu
  214. Service kind                             : Complete Main
  215. Default                                  : No
  216. Forced                                   : No

  217. Audio #10
  218. ID                                       : 11
  219. Format                                   : AC-3
  220. Format/Info                              : Audio Coding 3
  221. Commercial name                          : Dolby Digital
  222. Codec ID                                 : A_AC3
  223. Duration                                 : 1 h 43 min
  224. Bit rate mode                            : Constant
  225. Bit rate                                 : 448 kb/s
  226. Channel(s)                               : 6 channels
  227. Channel layout                           : L R C LFE Ls Rs
  228. Sampling rate                            : 48.0 kHz
  229. Frame rate                               : 31.250 FPS (1536 SPF)
  230. Bit depth                                : 16 bits
  231. Compression mode                         : Lossy
  232. Stream size                              : 333 MiB (1%)
  233. Title                                    : The.Darkest.Minds.2018.1080p.BluRay.REMUX.AVC.DTS-HD.MA.7.1-FGT
  234. Language                                 : Hungarian
  235. Service kind                             : Complete Main
  236. Default                                  : No
  237. Forced                                   : No

  238. Audio #11
  239. ID                                       : 12
  240. Format                                   : AC-3
  241. Format/Info                              : Audio Coding 3
  242. Commercial name                          : Dolby Digital
  243. Codec ID                                 : A_AC3
  244. Duration                                 : 1 h 43 min
  245. Bit rate mode                            : Constant
  246. Bit rate                                 : 448 kb/s
  247. Channel(s)                               : 6 channels
  248. Channel layout                           : L R C LFE Ls Rs
  249. Sampling rate                            : 48.0 kHz
  250. Frame rate                               : 31.250 FPS (1536 SPF)
  251. Bit depth                                : 16 bits
  252. Compression mode                         : Lossy
  253. Stream size                              : 333 MiB (1%)
  254. Title                                    : The.Darkest.Minds.2018.1080p.BluRay.REMUX.AVC.DTS-HD.MA.7.1-FGT
  255. Language                                 : Polish
  256. Service kind                             : Complete Main
  257. Default                                  : No
  258. Forced                                   : No

  259. Audio #12
  260. ID                                       : 13
  261. Format                                   : AC-3
  262. Format/Info                              : Audio Coding 3
  263. Commercial name                          : Dolby Digital
  264. Codec ID                                 : A_AC3
  265. Duration                                 : 1 h 43 min
  266. Bit rate mode                            : Constant
  267. Bit rate                                 : 448 kb/s
  268. Channel(s)                               : 6 channels
  269. Channel layout                           : L R C LFE Ls Rs
  270. Sampling rate                            : 48.0 kHz
  271. Frame rate                               : 31.250 FPS (1536 SPF)
  272. Bit depth                                : 16 bits
  273. Compression mode                         : Lossy
  274. Stream size                              : 333 MiB (1%)
  275. Title                                    : The.Darkest.Minds.2018.1080p.BluRay.REMUX.AVC.DTS-HD.MA.7.1-FGT
  276. Language                                 : Thai
  277. Service kind                             : Complete Main
  278. Default                                  : No
  279. Forced                                   : No

  280. Audio #13
  281. ID                                       : 14
  282. Format                                   : AC-3
  283. Format/Info                              : Audio Coding 3
  284. Commercial name                          : Dolby Digital
  285. Codec ID                                 : A_AC3
  286. Duration                                 : 1 h 43 min
  287. Bit rate mode                            : Constant
  288. Bit rate                                 : 448 kb/s
  289. Channel(s)                               : 6 channels
  290. Channel layout                           : L R C LFE Ls Rs
  291. Sampling rate                            : 48.0 kHz
  292. Frame rate                               : 31.250 FPS (1536 SPF)
  293. Bit depth                                : 16 bits
  294. Compression mode                         : Lossy
  295. Stream size                              : 333 MiB (1%)
  296. Title                                    : The.Darkest.Minds.2018.1080p.BluRay.REMUX.AVC.DTS-HD.MA.7.1-FGT
  297. Language                                 : Turkish
  298. Service kind                             : Complete Main
  299. Default                                  : No
  300. Forced                                   : No

  301. Audio #14
  302. ID                                       : 15
  303. Format                                   : AC-3
  304. Format/Info                              : Audio Coding 3
  305. Commercial name                          : Dolby Digital
  306. Codec ID                                 : A_AC3
  307. Duration                                 : 1 h 43 min
  308. Bit rate mode                            : Constant
  309. Bit rate                                 : 224 kb/s
  310. Channel(s)                               : 2 channels
  311. Channel layout                           : L R
  312. Sampling rate                            : 48.0 kHz
  313. Frame rate                               : 31.250 FPS (1536 SPF)
  314. Bit depth                                : 16 bits
  315. Compression mode                         : Lossy
  316. Stream size                              : 166 MiB (1%)
  317. Title                                    : The.Darkest.Minds.2018.1080p.BluRay.REMUX.AVC.DTS-HD.MA.7.1-FGT
  318. Language                                 : English
  319. Service kind                             : Complete Main
  320. Default                                  : No
  321. Forced                                   : No

  322. Text #1
  323. ID                                       : 16
  324. Format                                   : PGS
  325. Muxing mode                              : zlib
  326. Codec ID                                 : S_HDMV/PGS
  327. Codec ID/Info                            : Picture based subtitle format used on BDs/HD-DVDs
  328. Duration                                 : 1 h 36 min
  329. Bit rate                                 : 64.0 kb/s
  330. Count of elements                        : 3060
  331. Stream size                              : 44.3 MiB (0%)
  332. Title                                    : English-PGS
  333. Language                                 : English
  334. Default                                  : Yes
  335. Forced                                   : No

  336. Text #2
  337. ID                                       : 17
  338. Format                                   : PGS
  339. Muxing mode                              : zlib
  340. Codec ID                                 : S_HDMV/PGS
  341. Codec ID/Info                            : Picture based subtitle format used on BDs/HD-DVDs
  342. Duration                                 : 1 h 42 min
  343. Bit rate                                 : 48.5 kb/s
  344. Count of elements                        : 2572
  345. Stream size                              : 35.6 MiB (0%)
  346. Title                                    : Spanish-PGS
  347. Language                                 : Spanish
  348. Default                                  : No
  349. Forced                                   : No

  350. Text #3
  351. ID                                       : 18
  352. Format                                   : PGS
  353. Muxing mode                              : zlib
  354. Codec ID                                 : S_HDMV/PGS
  355. Codec ID/Info                            : Picture based subtitle format used on BDs/HD-DVDs
  356. Duration                                 : 1 h 37 min
  357. Bit rate                                 : 753 b/s
  358. Count of elements                        : 32
  359. Stream size                              : 536 KiB (0%)
  360. Title                                    : Spanish-FORCED-PGS
  361. Language                                 : Spanish
  362. Default                                  : No
  363. Forced                                   : No

  364. Text #4
  365. ID                                       : 19
  366. Format                                   : PGS
  367. Muxing mode                              : zlib
  368. Codec ID                                 : S_HDMV/PGS
  369. Codec ID/Info                            : Picture based subtitle format used on BDs/HD-DVDs
  370. Duration                                 : 1 h 42 min
  371. Bit rate                                 : 50.9 kb/s
  372. Count of elements                        : 2640
  373. Stream size                              : 37.4 MiB (0%)
  374. Title                                    : French-PGS
  375. Language                                 : French
  376. Default                                  : No
  377. Forced                                   : No

  378. Text #5
  379. ID                                       : 20
  380. Format                                   : PGS
  381. Muxing mode                              : zlib
  382. Codec ID                                 : S_HDMV/PGS
  383. Codec ID/Info                            : Picture based subtitle format used on BDs/HD-DVDs
  384. Duration                                 : 1 h 37 min
  385. Bit rate                                 : 393 b/s
  386. Count of elements                        : 18
  387. Stream size                              : 280 KiB (0%)
  388. Title                                    : French-FORCED-PGS
  389. Language                                 : French
  390. Default                                  : No
  391. Forced                                   : No

  392. Text #6
  393. ID                                       : 21
  394. Format                                   : PGS
  395. Muxing mode                              : zlib
  396. Codec ID                                 : S_HDMV/PGS
  397. Codec ID/Info                            : Picture based subtitle format used on BDs/HD-DVDs
  398. Duration                                 : 1 h 42 min
  399. Bit rate                                 : 47.7 kb/s
  400. Count of elements                        : 2550
  401. Stream size                              : 35.1 MiB (0%)
  402. Title                                    : Portuguese-PGS
  403. Language                                 : Portuguese
  404. Default                                  : No
  405. Forced                                   : No

  406. Text #7
  407. ID                                       : 22
  408. Format                                   : PGS
  409. Muxing mode                              : zlib
  410. Codec ID                                 : S_HDMV/PGS
  411. Codec ID/Info                            : Picture based subtitle format used on BDs/HD-DVDs
  412. Duration                                 : 1 h 37 min
  413. Bit rate                                 : 415 b/s
  414. Count of elements                        : 20
  415. Stream size                              : 296 KiB (0%)
  416. Title                                    : Portuguese-FORCED-PGS
  417. Language                                 : Portuguese
  418. Default                                  : No
  419. Forced                                   : No

  420. Text #8
  421. ID                                       : 23
  422. Format                                   : PGS
  423. Muxing mode                              : zlib
  424. Codec ID                                 : S_HDMV/PGS
  425. Codec ID/Info                            : Picture based subtitle format used on BDs/HD-DVDs
  426. Duration                                 : 1 h 42 min
  427. Bit rate                                 : 30.8 kb/s
  428. Count of elements                        : 2580
  429. Stream size                              : 22.7 MiB (0%)
  430. Title                                    : Arabic-PGS
  431. Language                                 : Arabic
  432. Default                                  : No
  433. Forced                                   : No

  434. Text #9
  435. ID                                       : 24
  436. Format                                   : PGS
  437. Muxing mode                              : zlib
  438. Codec ID                                 : S_HDMV/PGS
  439. Codec ID/Info                            : Picture based subtitle format used on BDs/HD-DVDs
  440. Duration                                 : 1 h 42 min
  441. Bit rate                                 : 47.3 kb/s
  442. Count of elements                        : 2562
  443. Stream size                              : 34.7 MiB (0%)
  444. Title                                    : Bulgarian-PGS
  445. Language                                 : Bulgarian
  446. Default                                  : No
  447. Forced                                   : No

  448. Text #10
  449. ID                                       : 25
  450. Format                                   : PGS
  451. Muxing mode                              : zlib
  452. Codec ID                                 : S_HDMV/PGS
  453. Codec ID/Info                            : Picture based subtitle format used on BDs/HD-DVDs
  454. Duration                                 : 1 h 42 min
  455. Bit rate                                 : 36.3 kb/s
  456. Count of elements                        : 2578
  457. Stream size                              : 26.6 MiB (0%)
  458. Title                                    : Chinese-pGS
  459. Language                                 : Chinese
  460. Default                                  : No
  461. Forced                                   : No

  462. Text #11
  463. ID                                       : 26
  464. Format                                   : PGS
  465. Muxing mode                              : zlib
  466. Codec ID                                 : S_HDMV/PGS
  467. Codec ID/Info                            : Picture based subtitle format used on BDs/HD-DVDs
  468. Duration                                 : 1 h 42 min
  469. Bit rate                                 : 48.3 kb/s
  470. Count of elements                        : 2542
  471. Stream size                              : 35.5 MiB (0%)
  472. Title                                    : Croatian-PGS
  473. Language                                 : Croatian
  474. Default                                  : No
  475. Forced                                   : No

  476. Text #12
  477. ID                                       : 27
  478. Format                                   : PGS
  479. Muxing mode                              : zlib
  480. Codec ID                                 : S_HDMV/PGS
  481. Codec ID/Info                            : Picture based subtitle format used on BDs/HD-DVDs
  482. Duration                                 : 1 h 42 min
  483. Bit rate                                 : 44.7 kb/s
  484. Count of elements                        : 2576
  485. Stream size                              : 32.8 MiB (0%)
  486. Title                                    : Czech-PGS
  487. Language                                 : Czech
  488. Default                                  : No
  489. Forced                                   : No

  490. Text #13
  491. ID                                       : 28
  492. Format                                   : PGS
  493. Muxing mode                              : zlib
  494. Codec ID                                 : S_HDMV/PGS
  495. Codec ID/Info                            : Picture based subtitle format used on BDs/HD-DVDs
  496. Duration                                 : 1 h 40 min
  497. Bit rate                                 : 842 b/s
  498. Count of elements                        : 44
  499. Stream size                              : 621 KiB (0%)
  500. Title                                    : Czech-FORCED-PGS
  501. Language                                 : Czech
  502. Default                                  : No
  503. Forced                                   : No

  504. Text #14
  505. ID                                       : 29
  506. Format                                   : PGS
  507. Muxing mode                              : zlib
  508. Codec ID                                 : S_HDMV/PGS
  509. Codec ID/Info                            : Picture based subtitle format used on BDs/HD-DVDs
  510. Duration                                 : 1 h 42 min
  511. Bit rate                                 : 51.3 kb/s
  512. Count of elements                        : 2344
  513. Stream size                              : 37.7 MiB (0%)
  514. Title                                    : Greek-PGS
  515. Language                                 : Greek
  516. Default                                  : No
  517. Forced                                   : No

  518. Text #15
  519. ID                                       : 30
  520. Format                                   : PGS
  521. Muxing mode                              : zlib
  522. Codec ID                                 : S_HDMV/PGS
  523. Codec ID/Info                            : Picture based subtitle format used on BDs/HD-DVDs
  524. Duration                                 : 1 h 42 min
  525. Bit rate                                 : 36.8 kb/s
  526. Count of elements                        : 2598
  527. Stream size                              : 27.0 MiB (0%)
  528. Title                                    : Hebrew-PGS
  529. Language                                 : Hebrew
  530. Default                                  : No
  531. Forced                                   : No

  532. Text #16
  533. ID                                       : 31
  534. Format                                   : PGS
  535. Muxing mode                              : zlib
  536. Codec ID                                 : S_HDMV/PGS
  537. Codec ID/Info                            : Picture based subtitle format used on BDs/HD-DVDs
  538. Duration                                 : 1 h 42 min
  539. Bit rate                                 : 45.5 kb/s
  540. Count of elements                        : 2574
  541. Stream size                              : 33.4 MiB (0%)
  542. Title                                    : Hindi-PGS
  543. Language                                 : Hindi
  544. Default                                  : No
  545. Forced                                   : No

  546. Text #17
  547. ID                                       : 32
  548. Format                                   : PGS
  549. Muxing mode                              : zlib
  550. Codec ID                                 : S_HDMV/PGS
  551. Codec ID/Info                            : Picture based subtitle format used on BDs/HD-DVDs
  552. Duration                                 : 1 h 40 min
  553. Bit rate                                 : 475 b/s
  554. Count of elements                        : 34
  555. Stream size                              : 350 KiB (0%)
  556. Title                                    : Hindi-FORCED-PGS
  557. Language                                 : Hindi
  558. Default                                  : No
  559. Forced                                   : No

  560. Text #18
  561. ID                                       : 33
  562. Format                                   : PGS
  563. Muxing mode                              : zlib
  564. Codec ID                                 : S_HDMV/PGS
  565. Codec ID/Info                            : Picture based subtitle format used on BDs/HD-DVDs
  566. Duration                                 : 1 h 42 min
  567. Bit rate                                 : 49.2 kb/s
  568. Count of elements                        : 2578
  569. Stream size                              : 36.1 MiB (0%)
  570. Title                                    : Hungarian-PGS
  571. Language                                 : Hungarian
  572. Default                                  : No
  573. Forced                                   : No

  574. Text #19
  575. ID                                       : 34
  576. Format                                   : PGS
  577. Muxing mode                              : zlib
  578. Codec ID                                 : S_HDMV/PGS
  579. Codec ID/Info                            : Picture based subtitle format used on BDs/HD-DVDs
  580. Duration                                 : 1 h 37 min
  581. Bit rate                                 : 727 b/s
  582. Count of elements                        : 30
  583. Stream size                              : 517 KiB (0%)
  584. Title                                    : Hungarian-FORCED-PGS
  585. Language                                 : Hungarian
  586. Default                                  : No
  587. Forced                                   : No

  588. Text #20
  589. ID                                       : 35
  590. Format                                   : PGS
  591. Muxing mode                              : zlib
  592. Codec ID                                 : S_HDMV/PGS
  593. Codec ID/Info                            : Picture based subtitle format used on BDs/HD-DVDs
  594. Duration                                 : 1 h 42 min
  595. Bit rate                                 : 45.8 kb/s
  596. Count of elements                        : 2388
  597. Stream size                              : 33.6 MiB (0%)
  598. Title                                    : Icelandic-PGS
  599. Language                                 : Icelandic
  600. Default                                  : No
  601. Forced                                   : No

  602. Text #21
  603. ID                                       : 36
  604. Format                                   : PGS
  605. Muxing mode                              : zlib
  606. Codec ID                                 : S_HDMV/PGS
  607. Codec ID/Info                            : Picture based subtitle format used on BDs/HD-DVDs
  608. Duration                                 : 1 h 42 min
  609. Bit rate                                 : 38.4 kb/s
  610. Count of elements                        : 2578
  611. Stream size                              : 28.1 MiB (0%)
  612. Title                                    : Korean-PGS
  613. Language                                 : Korean
  614. Default                                  : No
  615. Forced                                   : No

  616. Text #22
  617. ID                                       : 37
  618. Format                                   : PGS
  619. Muxing mode                              : zlib
  620. Codec ID                                 : S_HDMV/PGS
  621. Codec ID/Info                            : Picture based subtitle format used on BDs/HD-DVDs
  622. Duration                                 : 1 h 42 min
  623. Bit rate                                 : 56.2 kb/s
  624. Count of elements                        : 2566
  625. Stream size                              : 41.2 MiB (0%)
  626. Title                                    : Malay-PGS
  627. Language                                 : Malay
  628. Default                                  : No
  629. Forced                                   : No

  630. Text #23
  631. ID                                       : 38
  632. Format                                   : PGS
  633. Muxing mode                              : zlib
  634. Codec ID                                 : S_HDMV/PGS
  635. Codec ID/Info                            : Picture based subtitle format used on BDs/HD-DVDs
  636. Duration                                 : 1 h 42 min
  637. Bit rate                                 : 38.3 kb/s
  638. Count of elements                        : 2576
  639. Stream size                              : 28.1 MiB (0%)
  640. Title                                    : Chinese-pGS
  641. Language                                 : Chinese
  642. Default                                  : No
  643. Forced                                   : No

  644. Text #24
  645. ID                                       : 39
  646. Format                                   : PGS
  647. Muxing mode                              : zlib
  648. Codec ID                                 : S_HDMV/PGS
  649. Codec ID/Info                            : Picture based subtitle format used on BDs/HD-DVDs
  650. Duration                                 : 1 h 42 min
  651. Bit rate                                 : 43.0 kb/s
  652. Count of elements                        : 2474
  653. Stream size                              : 31.6 MiB (0%)
  654. Title                                    : Polish-PGS
  655. Language                                 : Polish
  656. Default                                  : No
  657. Forced                                   : No

  658. Text #25
  659. ID                                       : 40
  660. Format                                   : PGS
  661. Muxing mode                              : zlib
  662. Codec ID                                 : S_HDMV/PGS
  663. Codec ID/Info                            : Picture based subtitle format used on BDs/HD-DVDs
  664. Duration                                 : 1 h 37 min
  665. Bit rate                                 : 1 069 b/s
  666. Count of elements                        : 46
  667. Stream size                              : 760 KiB (0%)
  668. Title                                    : Polish-FORCED-PGS
  669. Language                                 : Polish
  670. Default                                  : No
  671. Forced                                   : No

  672. Text #26
  673. ID                                       : 41
  674. Format                                   : PGS
  675. Muxing mode                              : zlib
  676. Codec ID                                 : S_HDMV/PGS
  677. Codec ID/Info                            : Picture based subtitle format used on BDs/HD-DVDs
  678. Duration                                 : 1 h 42 min
  679. Bit rate                                 : 52.3 kb/s
  680. Count of elements                        : 2564
  681. Stream size                              : 38.3 MiB (0%)
  682. Title                                    : Portuguese-PGS
  683. Language                                 : Portuguese
  684. Default                                  : No
  685. Forced                                   : No

  686. Text #27
  687. ID                                       : 42
  688. Format                                   : PGS
  689. Muxing mode                              : zlib
  690. Codec ID                                 : S_HDMV/PGS
  691. Codec ID/Info                            : Picture based subtitle format used on BDs/HD-DVDs
  692. Duration                                 : 1 h 42 min
  693. Bit rate                                 : 46.9 kb/s
  694. Count of elements                        : 2578
  695. Stream size                              : 34.4 MiB (0%)
  696. Title                                    : Romanian-PGS
  697. Language                                 : Romanian
  698. Default                                  : No
  699. Forced                                   : No

  700. Text #28
  701. ID                                       : 43
  702. Format                                   : PGS
  703. Muxing mode                              : zlib
  704. Codec ID                                 : S_HDMV/PGS
  705. Codec ID/Info                            : Picture based subtitle format used on BDs/HD-DVDs
  706. Duration                                 : 1 h 42 min
  707. Bit rate                                 : 44.0 kb/s
  708. Count of elements                        : 2556
  709. Stream size                              : 32.2 MiB (0%)
  710. Title                                    : Serbian-PGS
  711. Language                                 : Serbian
  712. Default                                  : No
  713. Forced                                   : No

  714. Text #29
  715. ID                                       : 44
  716. Format                                   : PGS
  717. Muxing mode                              : zlib
  718. Codec ID                                 : S_HDMV/PGS
  719. Codec ID/Info                            : Picture based subtitle format used on BDs/HD-DVDs
  720. Duration                                 : 1 h 42 min
  721. Bit rate                                 : 41.8 kb/s
  722. Count of elements                        : 2574
  723. Stream size                              : 30.7 MiB (0%)
  724. Title                                    : Slovak-PGS
  725. Language                                 : Slovak
  726. Default                                  : No
  727. Forced                                   : No

  728. Text #30
  729. ID                                       : 45
  730. Format                                   : PGS
  731. Muxing mode                              : zlib
  732. Codec ID                                 : S_HDMV/PGS
  733. Codec ID/Info                            : Picture based subtitle format used on BDs/HD-DVDs
  734. Duration                                 : 1 h 42 min
  735. Bit rate                                 : 43.0 kb/s
  736. Count of elements                        : 1822
  737. Stream size                              : 31.5 MiB (0%)
  738. Title                                    : Slovenian-PGS
  739. Language                                 : Slovenian
  740. Default                                  : No
  741. Forced                                   : No

  742. Text #31
  743. ID                                       : 46
  744. Format                                   : PGS
  745. Muxing mode                              : zlib
  746. Codec ID                                 : S_HDMV/PGS
  747. Codec ID/Info                            : Picture based subtitle format used on BDs/HD-DVDs
  748. Duration                                 : 1 h 42 min
  749. Bit rate                                 : 45.7 kb/s
  750. Count of elements                        : 2586
  751. Stream size                              : 33.6 MiB (0%)
  752. Title                                    : Thai-PGS
  753. Language                                 : Thai
  754. Default                                  : No
  755. Forced                                   : No

  756. Text #32
  757. ID                                       : 47
  758. Format                                   : PGS
  759. Muxing mode                              : zlib
  760. Codec ID                                 : S_HDMV/PGS
  761. Codec ID/Info                            : Picture based subtitle format used on BDs/HD-DVDs
  762. Duration                                 : 1 h 40 min
  763. Bit rate                                 : 461 b/s
  764. Count of elements                        : 28
  765. Stream size                              : 340 KiB (0%)
  766. Title                                    : Thai-FORCED-PGS
  767. Language                                 : Thai
  768. Default                                  : No
  769. Forced                                   : No

  770. Text #33
  771. ID                                       : 48
  772. Format                                   : PGS
  773. Muxing mode                              : zlib
  774. Codec ID                                 : S_HDMV/PGS
  775. Codec ID/Info                            : Picture based subtitle format used on BDs/HD-DVDs
  776. Duration                                 : 1 h 42 min
  777. Bit rate                                 : 49.7 kb/s
  778. Count of elements                        : 2600
  779. Stream size                              : 36.5 MiB (0%)
  780. Title                                    : Turkish-PGS
  781. Language                                 : Turkish
  782. Default                                  : No
  783. Forced                                   : No

  784. Text #34
  785. ID                                       : 49
  786. Format                                   : PGS
  787. Muxing mode                              : zlib
  788. Codec ID                                 : S_HDMV/PGS
  789. Codec ID/Info                            : Picture based subtitle format used on BDs/HD-DVDs
  790. Duration                                 : 1 h 37 min
  791. Bit rate                                 : 1 082 b/s
  792. Count of elements                        : 46
  793. Stream size                              : 770 KiB (0%)
  794. Title                                    : Turkish-FORCED-PGS
  795. Language                                 : Turkish
  796. Default                                  : No
  797. Forced                                   : No

  798. Text #35
  799. ID                                       : 50
  800. Format                                   : PGS
  801. Muxing mode                              : zlib
  802. Codec ID                                 : S_HDMV/PGS
  803. Codec ID/Info                            : Picture based subtitle format used on BDs/HD-DVDs
  804. Duration                                 : 1 h 39 min
  805. Bit rate                                 : 146 kb/s
  806. Count of elements                        : 4176
  807. Stream size                              : 105 MiB (0%)
  808. Title                                    : English-COMMENTARY-PGS
  809. Language                                 : English
  810. Default                                  : No
  811. Forced                                   : No

  812. Text #36
  813. ID                                       : 51
  814. Format                                   : PGS
  815. Muxing mode                              : zlib
  816. Codec ID                                 : S_HDMV/PGS
  817. Codec ID/Info                            : Picture based subtitle format used on BDs/HD-DVDs
  818. Duration                                 : 1 h 43 min
  819. Bit rate                                 : 117 kb/s
  820. Count of elements                        : 3940
  821. Stream size                              : 86.6 MiB (0%)
  822. Title                                    : Spanish-COMMENTARY-PGS
  823. Language                                 : Spanish
  824. Default                                  : No
  825. Forced                                   : No

  826. Text #37
  827. ID                                       : 52
  828. Format                                   : PGS
  829. Muxing mode                              : zlib
  830. Codec ID                                 : S_HDMV/PGS
  831. Codec ID/Info                            : Picture based subtitle format used on BDs/HD-DVDs
  832. Duration                                 : 1 h 43 min
  833. Bit rate                                 : 105 kb/s
  834. Count of elements                        : 3922
  835. Stream size                              : 77.7 MiB (0%)
  836. Title                                    : French-COMMENTARY-PGS
  837. Language                                 : French
  838. Default                                  : No
  839. Forced                                   : No

  840. Text #38
  841. ID                                       : 53
  842. Format                                   : PGS
  843. Muxing mode                              : zlib
  844. Codec ID                                 : S_HDMV/PGS
  845. Codec ID/Info                            : Picture based subtitle format used on BDs/HD-DVDs
  846. Duration                                 : 1 h 43 min
  847. Bit rate                                 : 93.8 kb/s
  848. Count of elements                        : 3922
  849. Stream size                              : 69.5 MiB (0%)
  850. Title                                    : Korean-COMMENTARY-PGS
  851. Language                                 : Korean
  852. Default                                  : No
  853. Forced                                   : No

  854. Menu
  855. 00:00:00.000                             : en:Chapter 01
  856. 00:03:53.358                             : en:Chapter 02
  857. 00:09:40.037                             : en:Chapter 03
  858. 00:14:33.747                             : en:Chapter 04
  859. 00:19:26.957                             : en:Chapter 05
  860. 00:23:35.539                             : en:Chapter 06
  861. 00:26:24.165                             : en:Chapter 07
  862. 00:30:50.932                             : en:Chapter 08
  863. 00:35:35.341                             : en:Chapter 09
  864. 00:41:21.562                             : en:Chapter 10
  865. 00:47:22.923                             : en:Chapter 11
  866. 00:51:48.313                             : en:Chapter 12
  867. 00:55:55.226                             : en:Chapter 13
  868. 00:59:32.819                             : en:Chapter 14
  869. 01:03:33.684                             : en:Chapter 15
  870. 01:08:40.616                             : en:Chapter 16
  871. 01:12:14.246                             : en:Chapter 17
  872. 01:14:11.447                             : en:Chapter 18
  873. 01:18:01.802                             : en:Chapter 19
  874. 01:20:54.516                             : en:Chapter 20
  875. 01:23:28.003                             : en:Chapter 21
  876. 01:26:56.878                             : en:Chapter 22
  877. 01:29:24.984                             : en:Chapter 23
  878. 01:37:59.957                             : en:Chapter 24
复制代码

复制代码

黑暗心灵/暗黑之心 The.Darkest.Minds.2018.1080p.BluRay.REMUX.AVC.DTS-HD.MA.7.1-FGT 29.17GB-2.png 黑暗心灵/暗黑之心 The.Darkest.Minds.2018.1080p.BluRay.REMUX.AVC.DTS-HD.MA.7.1-FGT 29.17GB-3.png 黑暗心灵/暗黑之心 The.Darkest.Minds.2018.1080p.BluRay.REMUX.AVC.DTS-HD.MA.7.1-FGT 29.17GB-4.png





回复

使用道具 举报

懒得打字嘛,点击右侧快捷回复 【右侧内容,后台自定义】
您需要登录后才可以回帖 登录 | 立即注册

本版积分规则

QQ|Archiver|手机版|小黑屋|中国高清网 |网站地图

GMT+8, 2019-1-23 01:42 , Processed in 0.298623 second(s), 40 queries .

Powered by HDchina X3.4

Copyright 2017-2018©HDchina.All right reserved

返回顶部 联系我们