你所知道的4K资源这里全部都有 4K电影 | 4K视频 | 4K壁纸 | 4K MV 怎么播放4K视频 | 4K电视演示片

教你玩转4K私人与家庭影院存储 NAS组装 | 黑群辉 家庭/影院Nas论坛

4K家庭影院信号源与视频设备知识 4K蓝光高清播放机 - 那个品牌好? 4K投影机论坛 | 4K电视机论坛

手把手教你搭建属于自己的家庭影院 4K家庭影院案例 | 家庭影院音频 4K家庭影院论坛

查看: 25|回复: 0

[科幻片] 独眼巨人 The.Cyclops.1957.1080p.BluRay.REMUX.AVC.LPCM.2.0-FGT 17.68GB

[复制链接]

 成长值: 130

级别:资源管理组

UID
1
注册时间
2017-10-20
最后登录
2019-1-22
听众
0
收听
0
主题
73996
蓝光币
116842 枚
贡献
143805 点
发表于 2018-10-24 21:34:18 | 显示全部楼层 |阅读模式


◎译  名 独眼伟人
◎片  名 独眼伟人 The Cyclops
◎年  代 1957
◎国  家 美国
◎类  别 科幻 / 可骇
◎语  言 英语
◎上映日期 1957-07-28
◎IMDb评分  4.4/10 from 717 users
◎IMDb链接  http://www.imdb.com/title/tt0050281/
◎豆瓣评分 今朝无人评价
◎豆瓣链接 https://movie.douban.com/subject/3238354/
◎片  长 75 分钟
◎导  演 伯特·I·戈登
◎主  演 詹姆斯·克雷格
      格洛瑞亚·陶伯特
      小朗·钱尼
      汤姆·德雷克

◎简  介 

  剧情报告了一位深入墨西哥无人之境,寻觅她失落丈夫的故事,他聘请的其中一位成员的饰演者就是著名的“小钱尼”,可是他却有着自己的目标,寻觅镭元素,而小钱尼成功的归纳了这个不成琢磨和难以预感的脚色。由于这块地盘遭到了很强的核辐射,一切的生物都有此变得很是庞大,可是这些怪兽的身材偶然辰会变通明,接着,这群人来到了台甫鼎鼎的“布朗森洞窟”,她找到了她的丈夫,可是他已经变异成为了“独眼伟人。


  1. Video
  2. ID                                       : 1
  3. Format                                   : AVC
  4. Format/Info                              : Advanced Video Codec
  5. Format profile                           : [url=/cdn-cgi/l/email-protection][email protected][/url]
  6. Format settings                          : CABAC / 4 Ref Frames
  7. Format settings, CABAC                   : Yes
  8. Format settings, ReFrames                : 4 frames
  9. Codec ID                                 : V_MPEG4/ISO/AVC
  10. Duration                                 : 1 h 5 min
  11. Bit rate mode                            : Variable
  12. Bit rate                                 : 34.9 Mb/s
  13. Maximum bit rate                         : 38.0 Mb/s
  14. Width                                    : 1 920 pixels
  15. Height                                   : 1 080 pixels
  16. Display aspect ratio                     : 16:9
  17. Frame rate mode                          : Constant
  18. Frame rate                               : 23.976 (24000/1001) FPS
  19. Color space                              : YUV
  20. Chroma subsampling                       : 4:2:0
  21. Bit depth                                : 8 bits
  22. Scan type                                : Progressive
  23. Bits/(Pixel*Frame)                       : 0.701
  24. Stream size                              : 16.0 GiB (91%)
  25. Title                                    : The.Cyclops.1958.1080p.BluRay.REMUX.AVC.LPCM.2.0-FGT
  26. Language                                 : English
  27. Default                                  : No
  28. Forced                                   : No

  29. Audio #1
  30. ID                                       : 2
  31. Format                                   : DTS XLL
  32. Format/Info                              : Digital Theater Systems
  33. Commercial name                          : DTS-HD Master Audio
  34. Codec ID                                 : A_DTS
  35. Duration                                 : 1 h 5 min
  36. Bit rate mode                            : Variable
  37. Bit rate                                 : 1 988 kb/s
  38. Channel(s)                               : 2 channels
  39. Channel layout                           : L R
  40. Sampling rate                            : 48.0 kHz
  41. Frame rate                               : 93.750 FPS (512 SPF)
  42. Bit depth                                : 24 bits
  43. Compression mode                         : Lossless
  44. Stream size                              : 937 MiB (5%)
  45. Title                                    : The.Cyclops.1958.1080p.BluRay.REMUX.AVC.LPCM.2.0-FGT
  46. Language                                 : English
  47. Default                                  : Yes
  48. Forced                                   : No

  49. Audio #2
  50. ID                                       : 3
  51. Format                                   : DTS
  52. Format/Info                              : Digital Theater Systems
  53. Codec ID                                 : A_DTS
  54. Duration                                 : 1 h 5 min
  55. Bit rate mode                            : Constant
  56. Bit rate                                 : 1 509 kb/s
  57. Channel(s)                               : 2 channels
  58. Channel layout                           : L R
  59. Sampling rate                            : 48.0 kHz
  60. Frame rate                               : 93.750 FPS (512 SPF)
  61. Bit depth                                : 24 bits
  62. Compression mode                         : Lossy
  63. Stream size                              : 711 MiB (4%)
  64. Title                                    : The.Cyclops.1958.1080p.BluRay.REMUX.AVC.LPCM.2.0-FGT
  65. Language                                 : English
  66. Default                                  : No
  67. Forced                                   : No

  68. Text
  69. ID                                       : 4
  70. Format                                   : PGS
  71. Muxing mode                              : zlib
  72. Codec ID                                 : S_HDMV/PGS
  73. Codec ID/Info                            : Picture based subtitle format used on BDs/HD-DVDs
  74. Duration                                 : 1 h 5 min
  75. Bit rate                                 : 66.4 kb/s
  76. Count of elements                        : 1800
  77. Stream size                              : 30.9 MiB (0%)
  78. Title                                    : English-PGS
  79. Language                                 : English
  80. Default                                  : Yes
  81. Forced                                   : No

  82. Menu
  83. 00:00:00.000                             : en:Chapter 01
  84. 00:01:16.451                             : en:Chapter 02
  85. 00:05:22.363                             : en:Chapter 03
  86. 00:09:40.621                             : en:Chapter 04
  87. 00:13:34.522                             : en:Chapter 05
  88. 00:17:41.060                             : en:Chapter 06
  89. 00:23:44.756                             : en:Chapter 07
  90. 00:29:39.861                             : en:Chapter 08
  91. 00:31:48.448                             : en:Chapter 09
  92. 00:34:23.519                             : en:Chapter 10
  93. 00:37:44.470                             : en:Chapter 11
  94. 00:41:09.842                             : en:Chapter 12
  95. 00:43:35.487                             : en:Chapter 13
  96. 00:47:43.569                             : en:Chapter 14
  97. 00:49:47.859                             : en:Chapter 15
  98. 00:55:31.953                             : en:Chapter 16
  99. 01:00:53.316                             : en:Chapter 17
  100. 01:02:49.307                             : en:Chapter 18
  101. 01:05:45.107                             : en:Chapter 19
  102. 01:05:53.157                             : en:Chapter 20
复制代码

复制代码

独眼伟人 The.Cyclops.1957.1080p.BluRay.REMUX.AVC.LPCM.2.0-FGT 17.68GB-2.png 独眼伟人 The.Cyclops.1957.1080p.BluRay.REMUX.AVC.LPCM.2.0-FGT 17.68GB-3.png 独眼伟人 The.Cyclops.1957.1080p.BluRay.REMUX.AVC.LPCM.2.0-FGT 17.68GB-4.png





回复

使用道具 举报

懒得打字嘛,点击右侧快捷回复 【右侧内容,后台自定义】
您需要登录后才可以回帖 登录 | 立即注册

本版积分规则

QQ|Archiver|手机版|小黑屋|中国高清网 |网站地图

GMT+8, 2019-1-23 00:28 , Processed in 0.229655 second(s), 39 queries .

Powered by HDchina X3.4

Copyright 2017-2018©HDchina.All right reserved

返回顶部 联系我们