你所知道的4K资源这里全部都有 4K电影 | 4K视频 | 4K壁纸 | 4K MV 怎么播放4K视频 | 4K电视演示片

教你玩转4K私人与家庭影院存储 NAS组装 | 黑群辉 家庭/影院Nas论坛

4K家庭影院信号源与视频设备知识 4K蓝光高清播放机 - 那个品牌好? 4K投影机论坛 | 4K电视机论坛

手把手教你搭建属于自己的家庭影院 4K家庭影院案例 | 家庭影院音频 4K家庭影院论坛

查看: 247|回复: 3

[科幻片] 此刻只有你共我/我想我们现在很孤独 I.Think.Were.Alone.Now.2018.1080p.BluRay.REMUX.AVC.DTS-HD.MA.TrueHD.7.1.Atmos-FGT 26.79GB

[复制链接]

 成长值: 1670

级别:资源管理组

注册时间
2017-10-20
最后登录
2019-6-25
听众
0
收听
0
主题
78745
蓝光币
28950 枚
贡献
3070 点
发表于 2018-10-19 11:16:05 | 显示全部楼层 |阅读模式

现在只要你共我/我想我们现在很孤独 I.Think.Were.Alone.Now.2018.1080p.BluRay.REMUX.AVC.DTS-HD.MA.TrueHD.7.1.Atmos-FGT 26.79GB-1.jpg
◎译  名 现在只要你共我/我想我们现在很孤独
◎片  名 I Think We're Alone Now
◎年  代 2018
◎产  地 美国
◎类  别 科幻
◎语  言 英语
◎上映日期 2018-01-20(圣丹斯电影节)/2018-09-21(美国)
◎IMDb评分  5.6/10 from 1,947 users
◎IMDb链接  http://www.imdb.com/title/tt6169694/
◎豆瓣评分 /10 from 0 users
◎豆瓣链接 https://movie.douban.com/subject/26897430/
◎片  长 93分钟
◎导  演 瑞德·穆拉诺 Reed Morano
◎主  演 彼特·丁拉基 Peter Dinklage
      艾丽·范宁 Elle Fanning
      夏洛特·甘斯布 Charlotte Gainsbourg
      保罗·吉亚玛提 Paul Giamatti

◎简  介

  Del独存于世,在人类被消灭后,他生活在他那狭窄、空荡荡的小镇里,满足于独居和他为自己经心设想的乌托邦,直到他被女孩Grace发现,她的布景和动机都是模糊的,更糟糕的是,她想留下来。

  1. Video
  2. ID                                       : 1
  3. Format                                   : AVC
  4. Format/Info                              : Advanced Video Codec
  5. Format profile                           : [url=/cdn-cgi/l/email-protection][email protected][/url]
  6. Format settings                          : CABAC / 4 Ref Frames
  7. Format settings, CABAC                   : Yes
  8. Format settings, ReFrames                : 4 frames
  9. Codec ID                                 : V_MPEG4/ISO/AVC
  10. Duration                                 : 1 h 39 min
  11. Bit rate mode                            : Variable
  12. Bit rate                                 : 30.0 Mb/s
  13. Maximum bit rate                         : 35.0 Mb/s
  14. Width                                    : 1 920 pixels
  15. Height                                   : 1 080 pixels
  16. Display aspect ratio                     : 16:9
  17. Frame rate mode                          : Constant
  18. Frame rate                               : 23.976 (24000/1001) FPS
  19. Standard                                 : NTSC
  20. Color space                              : YUV
  21. Chroma subsampling                       : 4:2:0
  22. Bit depth                                : 8 bits
  23. Scan type                                : Progressive
  24. Bits/(Pixel*Frame)                       : 0.603
  25. Stream size                              : 20.8 GiB (78%)
  26. Title                                    : I.Think.Were.Alone.Now.2018.1080p.BluRay.REMUX.AVC.DTS-HD.MA.TrueHD.7.1.Atmos-FGT
  27. Language                                 : English
  28. Default                                  : No
  29. Forced                                   : No
  30. Color range                              : Limited
  31. Color primaries                          : BT.709
  32. Transfer characteristics                 : BT.709
  33. Matrix coefficients                      : BT.709

  34. Audio #1
  35. ID                                       : 2
  36. Format                                   : MLP FBA 16-ch
  37. Format/Info                              : Meridian Lossless Packing FBA with 16-channel presentation
  38. Commercial name                          : Dolby TrueHD with Dolby Atmos
  39. Codec ID                                 : A_TRUEHD
  40. Duration                                 : 1 h 39 min
  41. Bit rate mode                            : Variable
  42. Bit rate                                 : 3 896 kb/s
  43. Maximum bit rate                         : 6 630 kb/s
  44. Channel(s)                               : 8 channels
  45. Channel layout                           : L R C LFE Ls Rs Lb Rb
  46. Sampling rate                            : 48.0 kHz
  47. Frame rate                               : 1 200.000 FPS (40 SPF)
  48. Compression mode                         : Lossless
  49. Stream size                              : 2.70 GiB (10%)
  50. Title                                    : I.Think.Were.Alone.Now.2018.1080p.BluRay.REMUX.AVC.DTS-HD.MA.TrueHD.7.1.Atmos-FGT
  51. Language                                 : English
  52. Default                                  : Yes
  53. Forced                                   : No
  54. Number of dynamic objects                : 11
  55. Bed channel count                        : 1 channel
  56. Bed channel configuration                : LFE

  57. Audio #2
  58. ID                                       : 3
  59. Format                                   : DTS XLL
  60. Format/Info                              : Digital Theater Systems
  61. Commercial name                          : DTS-HD Master Audio
  62. Codec ID                                 : A_DTS
  63. Duration                                 : 1 h 39 min
  64. Bit rate mode                            : Variable
  65. Bit rate                                 : 4 073 kb/s
  66. Channel(s)                               : 8 channels
  67. Channel layout                           : C L R LFE Lb Rb Lss Rss
  68. Sampling rate                            : 48.0 kHz
  69. Frame rate                               : 93.750 FPS (512 SPF)
  70. Bit depth                                : 24 bits
  71. Compression mode                         : Lossless
  72. Stream size                              : 2.82 GiB (11%)
  73. Title                                    : I.Think.Were.Alone.Now.2018.1080p.BluRay.REMUX.AVC.DTS-HD.MA.TrueHD.7.1.Atmos-FGT
  74. Language                                 : English
  75. Default                                  : No
  76. Forced                                   : No

  77. Audio #3
  78. ID                                       : 4
  79. Format                                   : AC-3
  80. Format/Info                              : Audio Coding 3
  81. Commercial name                          : Dolby Digital
  82. Codec ID                                 : A_AC3
  83. Duration                                 : 1 h 39 min
  84. Bit rate mode                            : Constant
  85. Bit rate                                 : 640 kb/s
  86. Channel(s)                               : 6 channels
  87. Channel layout                           : L R C LFE Ls Rs
  88. Sampling rate                            : 48.0 kHz
  89. Frame rate                               : 31.250 FPS (1536 SPF)
  90. Bit depth                                : 16 bits
  91. Compression mode                         : Lossy
  92. Stream size                              : 454 MiB (2%)
  93. Title                                    : I.Think.Were.Alone.Now.2018.1080p.BluRay.REMUX.AVC.DTS-HD.MA.TrueHD.7.1.Atmos-FGT
  94. Language                                 : English
  95. Service kind                             : Complete Main
  96. Default                                  : No
  97. Forced                                   : No

  98. Text
  99. ID                                       : 5
  100. Format                                   : PGS
  101. Muxing mode                              : zlib
  102. Codec ID                                 : S_HDMV/PGS
  103. Codec ID/Info                            : Picture based subtitle format used on BDs/HD-DVDs
  104. Duration                                 : 1 h 38 min
  105. Bit rate                                 : 18.2 kb/s
  106. Count of elements                        : 1332
  107. Stream size                              : 12.7 MiB (0%)
  108. Title                                    : English-PGS
  109. Language                                 : English
  110. Default                                  : Yes
  111. Forced                                   : No

  112. Menu
  113. 00:00:00.000                             : en:Chapter 01
  114. 00:04:48.413                             : en:Chapter 02
  115. 00:10:57.114                             : en:Chapter 03
  116. 00:17:14.408                             : en:Chapter 04
  117. 00:23:01.671                             : en:Chapter 05
  118. 00:29:39.360                             : en:Chapter 06
  119. 00:36:45.620                             : en:Chapter 07
  120. 00:43:04.665                             : en:Chapter 08
  121. 00:48:05.757                             : en:Chapter 09
  122. 00:53:10.896                             : en:Chapter 10
  123. 00:59:09.837                             : en:Chapter 11
  124. 01:05:52.031                             : en:Chapter 12
  125. 01:11:50.264                             : en:Chapter 13
  126. 01:18:22.948                             : en:Chapter 14
  127. 01:26:04.534                             : en:Chapter 15
  128. 01:33:41.324                             : en:Chapter 16
复制代码

复制代码

现在只要你共我/我想我们现在很孤独 I.Think.Were.Alone.Now.2018.1080p.BluRay.REMUX.AVC.DTS-HD.MA.TrueHD.7.1.Atmos-FGT 26.79GB-2.png 现在只要你共我/我想我们现在很孤独 I.Think.Were.Alone.Now.2018.1080p.BluRay.REMUX.AVC.DTS-HD.MA.TrueHD.7.1.Atmos-FGT 26.79GB-3.png 现在只要你共我/我想我们现在很孤独 I.Think.Were.Alone.Now.2018.1080p.BluRay.REMUX.AVC.DTS-HD.MA.TrueHD.7.1.Atmos-FGT 26.79GB-4.png



回复

使用道具 举报

级别:荣升主角 Lv.5

注册时间
2018-4-26
最后登录
2019-6-24
听众
9
收听
0
主题
0
蓝光币
706 枚
贡献
0 点
QQ
发表于 2018-10-20 16:55:03 | 显示全部楼层
这是什么类型的片子
回复

使用道具 举报

级别:群众演员 Lv.3

注册时间
2018-2-11
最后登录
2019-4-12
听众
7
收听
0
主题
0
蓝光币
33 枚
贡献
0 点
QQ
发表于 2018-10-23 14:58:05 | 显示全部楼层
不用谢了,收下。
回复

使用道具 举报

级别:群众演员 Lv.3

注册时间
2018-8-15
最后登录
2019-5-24
听众
7
收听
0
主题
0
蓝光币
1 枚
贡献
0 点
发表于 2018-10-23 15:14:14 | 显示全部楼层
谢谢分享!
回复

使用道具 举报

*滑动验证:
懒得打字嘛,点击右侧快捷回复 【右侧内容,后台自定义】
您需要登录后才可以回帖 登录 | 立即注册

本版积分规则

QQ|Archiver|手机版|小黑屋| 中国高清网 |网站地图

GMT+8, 2019-6-25 01:46 , Processed in 0.181117 second(s), 47 queries .

Powered by HDchina X3.4

Copyright 2017-2019©HDchina.All right reserved

返回顶部 联系我们