你所知道的4K资源这里全部都有 4K电影 | 4K视频 | 4K壁纸 | 4K MV 怎么播放4K视频 | 4K电视演示片

教你玩转4K私人与家庭影院存储 NAS组装 | 黑群辉 家庭/影院Nas论坛

4K家庭影院信号源与视频设备知识 4K蓝光高清播放机 - 那个品牌好? 4K投影机论坛 | 4K电视机论坛

手把手教你搭建属于自己的家庭影院 4K家庭影院案例 | 家庭影院音频 4K家庭影院论坛

查看: 92|回复: 1

[科幻片] 侏罗纪游戏 The.Jurassic.Games.2018.1080p.BluRay.REMUX.AVC.DTS-HD.MA.5.1-FGT 18.03GB

[复制链接]

 成长值: 130

级别:资源管理组

UID
1
注册时间
2017-10-20
最后登录
2019-1-22
听众
0
收听
0
主题
73996
蓝光币
116842 枚
贡献
143805 点
发表于 2018-10-19 10:40:28 | 显示全部楼层 |阅读模式

侏罗纪游戏 The.Jurassic.Games.2018.1080p.BluRay.REMUX.AVC.DTS-HD.MA.5.1-FGT 18.03GB-1.jpg
◎译  名 侏罗纪游戏
◎片  名 The Jurassic Games
◎年  代 2018
◎产  地 美国
◎类  别 科幻/惊悚
◎语  言 英语
◎上映日期 2018-05-21(英国)
◎IMDb评分  3.6/10 from 843 users
◎IMDb链接  http://www.imdb.com/title/tt6710826/
◎豆瓣评分 3.3/10 from 94 users
◎豆瓣链接 https://movie.douban.com/subject/27065245/
◎片  长 86分钟
◎导  演 Ryan Bellgardt
◎主  演 Perrey Reeves
      Ryan Merriman
      Cate Jones
      Katie Burgess
      Rett Terrell
      Kaye Brownlee-France
      布鲁斯·戴维斯 Bruce Davis

◎简  介

  在不遠的將來,每年十位世上最致命的死刑犯,將會在「侏羅 紀遊戲」競爭以獲得自在。在這場電視實境秀中,參賽者必須對抗兇猛的恐龍和绝不包涵的對手,最後的倖存者將獲得史无前例的自在、名望和財富!

  1. Video
  2. ID                                       : 1
  3. Format                                   : AVC
  4. Format/Info                              : Advanced Video Codec
  5. Format profile                           : [url=/cdn-cgi/l/email-protection][email protected][/url]
  6. Format settings                          : CABAC / 4 Ref Frames
  7. Format settings, CABAC                   : Yes
  8. Format settings, ReFrames                : 4 frames
  9. Codec ID                                 : V_MPEG4/ISO/AVC
  10. Duration                                 : 1 h 26 min
  11. Bit rate mode                            : Variable
  12. Bit rate                                 : 26.2 Mb/s
  13. Maximum bit rate                         : 35.0 Mb/s
  14. Width                                    : 1 920 pixels
  15. Height                                   : 1 080 pixels
  16. Display aspect ratio                     : 16:9
  17. Frame rate mode                          : Constant
  18. Frame rate                               : 24.000 FPS
  19. Color space                              : YUV
  20. Chroma subsampling                       : 4:2:0
  21. Bit depth                                : 8 bits
  22. Scan type                                : Progressive
  23. Bits/(Pixel*Frame)                       : 0.526
  24. Stream size                              : 15.8 GiB (87%)
  25. Title                                    : The.Jurassic.Games.2018.1080p.BluRay.REMUX.AVC.DTS-HD.MA.5.1-FGT
  26. Language                                 : English
  27. Default                                  : No
  28. Forced                                   : No
  29. Color range                              : Limited
  30. Color primaries                          : BT.709
  31. Transfer characteristics                 : BT.709
  32. Matrix coefficients                      : BT.709

  33. Audio #1
  34. ID                                       : 2
  35. Format                                   : DTS XLL
  36. Format/Info                              : Digital Theater Systems
  37. Commercial name                          : DTS-HD Master Audio
  38. Codec ID                                 : A_DTS
  39. Duration                                 : 1 h 26 min
  40. Bit rate mode                            : Variable
  41. Bit rate                                 : 2 240 kb/s
  42. Channel(s)                               : 6 channels
  43. Channel layout                           : C L R Ls Rs LFE
  44. Sampling rate                            : 48.0 kHz
  45. Frame rate                               : 93.750 FPS (512 SPF)
  46. Bit depth                                : 16 bits
  47. Compression mode                         : Lossless
  48. Stream size                              : 1.35 GiB (7%)
  49. Title                                    : The.Jurassic.Games.2018.1080p.BluRay.REMUX.AVC.DTS-HD.MA.5.1-FGT
  50. Language                                 : English
  51. Default                                  : Yes
  52. Forced                                   : No

  53. Audio #2
  54. ID                                       : 3
  55. Format                                   : DTS
  56. Format/Info                              : Digital Theater Systems
  57. Codec ID                                 : A_DTS
  58. Duration                                 : 1 h 26 min
  59. Bit rate mode                            : Constant
  60. Bit rate                                 : 1 509 kb/s
  61. Channel(s)                               : 6 channels
  62. Channel layout                           : C L R Ls Rs LFE
  63. Sampling rate                            : 48.0 kHz
  64. Frame rate                               : 93.750 FPS (512 SPF)
  65. Bit depth                                : 16 bits
  66. Compression mode                         : Lossy
  67. Stream size                              : 931 MiB (5%)
  68. Title                                    : The.Jurassic.Games.2018.1080p.BluRay.REMUX.AVC.DTS-HD.MA.5.1-FGT
  69. Language                                 : English
  70. Default                                  : No
  71. Forced                                   : No

  72. Menu
  73. 00:00:00.000                             : de:Chapter 01
  74. 00:02:31.875                             : de:Chapter 02
  75. 00:09:51.958                             : de:Chapter 03
  76. 00:18:28.625                             : de:Chapter 04
  77. 00:26:36.708                             : de:Chapter 05
  78. 00:32:23.166                             : de:Chapter 06
  79. 00:42:44.958                             : de:Chapter 07
  80. 00:49:31.833                             : de:Chapter 08
  81. 00:56:48.791                             : de:Chapter 09
  82. 01:06:58.750                             : de:Chapter 10
  83. 01:18:04.416                             : de:Chapter 11
  84. 01:22:42.583                             : de:Chapter 12
复制代码

复制代码

侏罗纪游戏 The.Jurassic.Games.2018.1080p.BluRay.REMUX.AVC.DTS-HD.MA.5.1-FGT 18.03GB-2.png 侏罗纪游戏 The.Jurassic.Games.2018.1080p.BluRay.REMUX.AVC.DTS-HD.MA.5.1-FGT 18.03GB-3.png 侏罗纪游戏 The.Jurassic.Games.2018.1080p.BluRay.REMUX.AVC.DTS-HD.MA.5.1-FGT 18.03GB-4.png




回复

使用道具 举报

级别:禁止发言

UID
1196
注册时间
2018-2-11
最后登录
2019-1-18
听众
2
收听
0
主题
0
蓝光币
35 枚
贡献
0 点
QQ
发表于 2018-10-23 15:02:35 | 显示全部楼层
提示: 作者被禁止或删除 内容自动屏蔽
回复

使用道具 举报

懒得打字嘛,点击右侧快捷回复 【右侧内容,后台自定义】
您需要登录后才可以回帖 登录 | 立即注册

本版积分规则

QQ|Archiver|手机版|小黑屋|中国高清网 |网站地图

GMT+8, 2019-1-23 00:18 , Processed in 0.120297 second(s), 41 queries .

Powered by HDchina X3.4

Copyright 2017-2018©HDchina.All right reserved

返回顶部 联系我们