你所知道的4K资源这里全部都有 4K电影 | 4K视频 | 4K壁纸 | 4K MV 怎么播放4K视频 | 4K电视演示片

教你玩转4K私人与家庭影院存储 NAS组装 | 黑群辉 家庭/影院Nas论坛

4K家庭影院信号源与视频设备知识 4K蓝光高清播放机 - 那个品牌好? 4K投影机论坛 | 4K电视机论坛

手把手教你搭建属于自己的家庭影院 4K家庭影院案例 | 家庭影院音频 4K家庭影院论坛

查看: 156|回复: 4

[动作片] 摩天营救/摩天大楼 Skyscraper.2018.3D.1080p.BluRay.x264-PSYCHD 7.67GB

[复制链接]

级别:资源管理组

UID
1
注册时间
2017-10-20
最后登录
2018-12-14
听众
0
收听
0
主题
73005
蓝光币
104558 枚
贡献
142813 点
发表于 2018-10-12 01:55:00 | 显示全部楼层 |阅读模式

摩天救援/摩天大楼 Skyscraper.2018.3D.1080p.BluRay.x264-PSYCHD 7.67GB-1.jpg
◎译  名 摩天救援/摩天大楼(台)/高凶浩劫(港)/挺拔入云
◎片  名 Skyscraper
◎年  代 2018
◎产  地 美国
◎类  别 行动/惊悚/冒险
◎语  言 英语/粤语/汉语普通话
◎上映日期 2018-07-13(美国)/2018-07-20(中国大陆)
◎IMDb评分  5.9/10 from 45,533 users
◎IMDb链接  http://www.imdb.com/title/tt5758778/
◎豆瓣评分 6.4/10 from 68,655 users
◎豆瓣链接 https://movie.douban.com/subject/26804147/
◎片  长 102分钟
◎导  演 罗森·马歇尔·瑟伯 Rawson Marshall Thurber
◎主  演 道恩·强森 Dwayne Johnson
      内芙·坎贝尔 Neve Campbell
      黄经汉 Chin Han
      罗兰·默勒 Roland M?ller
      麦肯纳·罗伯茨 McKenna Roberts
      诺亚·科特雷尔 Noah Cottrell
      诺亚·泰勒 Noah Taylor
      巴勃罗·施瑞博尔 Pablo Schreiber
      凯文·兰金 Kevin Rankin
      昆凌 Hannah Quinlivan
      文峰 Byron Mann
      马特·欧莱瑞 Matt O'Leary
      比特里斯·金 Beatrice King
      马志 Tzi Ma
      保罗·麦克吉莱恩 Paul McGillion
      吴嘉星 Kathy Wu
      艾德里安·霍姆斯 Adrian Holmes
      维努斯·特雷佐 Venus Terzo
      杰特·克莱恩 Jett Klyne
      拜伦·劳森 Byron Lawson
      关永扬 Darryl Quon
      法比欧·塔索恩 Fabio Tassone
      卡洛·余 Carlo Yu

◎简  介

  在香港市中心,天下上最高、结构最复杂的摩天大楼遭到破坏,危机一触即发。威尔·索耶(道恩·强森 饰)的妻子萨拉(内芙·坎贝尔 饰)和孩子们在98层被劫为人质,间接表露在前方上。威尔,这位战争豪杰、前联邦观察局救济队员,作为大楼的安保顾问,却被诬陷纵火和谋杀。他必须奋力救援家人,为自己洗脱罪名,关乎生死生死的高空使命就此展开。

  1. Video
  2. ID                                       : 1
  3. Format                                   : AVC
  4. Format/Info                              : Advanced Video Codec
  5. Format profile                           : [url=/cdn-cgi/l/email-protection][email protected][/url]
  6. Format settings                          : CABAC / 5 Ref Frames
  7. Format settings, CABAC                   : Yes
  8. Format settings, ReFrames                : 5 frames
  9. Codec ID                                 : V_MPEG4/ISO/AVC
  10. Duration                                 : 1 h 42 min
  11. Bit rate                                 : 10.1 Mb/s
  12. Width                                    : 1 920 pixels
  13. Height                                   : 800 pixels
  14. Display aspect ratio                     : 2.40:1
  15. Frame rate mode                          : Constant
  16. Frame rate                               : 23.976 (24000/1001) FPS
  17. Color space                              : YUV
  18. Chroma subsampling                       : 4:2:0
  19. Bit depth                                : 8 bits
  20. Scan type                                : Progressive
  21. Bits/(Pixel*Frame)                       : 0.273
  22. Stream size                              : 7.18 GiB (94%)
  23. Writing library                          : x264 core 157 r2935 545de2f
  24. Encoding settings                        : cabac=1 / ref=5 / deblock=1:-3:-3 / analyse=0x3:0x113 / me=umh / subme=8 / psy=1 / psy_rd=1.00:0.00 / mixed_ref=1 / me_range=48 / chroma_me=1 / trellis=2 / 8x8dct=1 / cqm=0 / deadzone=21,11 / fast_pskip=0 / chroma_qp_offset=-2 / threads=24 / lookahead_threads=4 / sliced_threads=0 / nr=0 / decimate=1 / interlaced=0 / bluray_compat=0 / constrained_intra=0 / bframes=3 / b_pyramid=2 / b_adapt=2 / b_bias=0 / direct=3 / weightb=1 / open_gop=0 / weightp=2 / keyint=240 / keyint_min=24 / scenecut=40 / intra_refresh=0 / rc_lookahead=50 / rc=2pass / mbtree=1 / bitrate=10056 / ratetol=1.0 / qcomp=0.60 / qpmin=0 / qpmax=69 / qpstep=4 / cplxblur=20.0 / qblur=0.5 / frame-packing=3 / ip_ratio=1.40 / aq=3:0.80
  25. Default                                  : Yes
  26. Forced                                   : No
  27. Color range                              : Limited
  28. Matrix coefficients                      : BT.709

  29. Audio
  30. ID                                       : 2
  31. Format                                   : AC-3
  32. Format/Info                              : Audio Coding 3
  33. Commercial name                          : Dolby Digital
  34. Codec ID                                 : A_AC3
  35. Duration                                 : 1 h 42 min
  36. Bit rate mode                            : Constant
  37. Bit rate                                 : 640 kb/s
  38. Channel(s)                               : 6 channels
  39. Channel layout                           : L R C LFE Ls Rs
  40. Sampling rate                            : 48.0 kHz
  41. Frame rate                               : 31.250 FPS (1536 SPF)
  42. Bit depth                                : 16 bits
  43. Compression mode                         : Lossy
  44. Stream size                              : 469 MiB (6%)
  45. Language                                 : English
  46. Service kind                             : Complete Main
  47. Default                                  : Yes
  48. Forced                                   : No

  49. Menu
  50. 00:00:00.000                             : en:1
  51. 00:04:24.764                             : en:2
  52. 00:10:07.356                             : en:3
  53. 00:16:09.927                             : en:4
  54. 00:21:12.604                             : en:5
  55. 00:25:34.991                             : en:6
  56. 00:30:11.726                             : en:7
  57. 00:35:23.913                             : en:8
  58. 00:40:07.113                             : en:9
  59. 00:47:18.961                             : en:10
  60. 00:52:10.252                             : en:11
  61. 00:58:16.784                             : en:12
  62. 01:02:02.969                             : en:13
  63. 01:05:29.634                             : en:14
  64. 01:09:59.403                             : en:15
  65. 01:14:31.425                             : en:16
  66. 01:17:18.258                             : en:17
  67. 01:23:33.341                             : en:18
  68. 01:27:46.219                             : en:19
  69. 01:32:54.569                             : en:20
复制代码

复制代码

摩天救援/摩天大楼 Skyscraper.2018.3D.1080p.BluRay.x264-PSYCHD 7.67GB-2.jpg





本帖隐藏的下载地址需要VIP会员才可阅读,您需要升级才可阅读,点击这里升级VIP

回复

使用道具 举报

级别:群众演员 Lv.3

UID
4223
注册时间
2018-6-3
最后登录
2018-11-24
听众
2
收听
0
主题
0
蓝光币
70 枚
贡献
0 点
发表于 2018-10-12 11:20:48 | 显示全部楼层
3D文件才7G?
回复

使用道具 举报

级别:普通观众 Lv.2

UID
8219
注册时间
2018-10-11
最后登录
2018-12-14
听众
2
收听
0
主题
0
蓝光币
28 枚
贡献
0 点
发表于 2018-10-12 14:44:47 | 显示全部楼层
感谢分享论坛有你更精彩
回复

使用道具 举报

级别:初级观众 Lv.1

UID
10993
注册时间
2018-11-28
最后登录
2018-11-29
听众
0
收听
0
主题
0
蓝光币
4 枚
贡献
0 点
发表于 2018-11-29 16:00:23 | 显示全部楼层

其实我一直觉得楼主的品味不错!呵呵!中国高清电影网太棒了!
回复

使用道具 举报

级别:初级观众 Lv.1

UID
10993
注册时间
2018-11-28
最后登录
2018-11-29
听众
0
收听
0
主题
0
蓝光币
4 枚
贡献
0 点
发表于 2018-11-29 16:01:14 | 显示全部楼层
3d电影才7G,可笑的是还得VIP,楼主品位不高
回复

使用道具 举报

懒得打字嘛,点击右侧快捷回复 【右侧内容,后台自定义】
您需要登录后才可以回帖 登录 | 立即注册

本版积分规则

QQ|Archiver|手机版|小黑屋|中国高清网 |网站地图

GMT+8, 2018-12-14 20:24 , Processed in 0.187838 second(s), 42 queries .

Powered by HDchina X3.4

Copyright 2017-2018©HDchina.All right reserved

返回顶部 联系我们