你所知道的4K资源这里全部都有 4K电影 | 4K视频 | 4K壁纸 | 4K MV 怎么播放4K视频 | 4K电视演示片

教你玩转4K私人与家庭影院存储 NAS组装 | 黑群辉 家庭/影院Nas论坛

4K家庭影院信号源与视频设备知识 4K蓝光高清播放机 - 那个品牌好? 4K投影机论坛 | 4K电视机论坛

手把手教你搭建属于自己的家庭影院 4K家庭影院案例 | 家庭影院音频 4K家庭影院论坛

查看: 71|回复: 2

[动作片] 摩天营救/摩天大楼 Skyscraper.2018.3D.1080p.BluRay.x264-PSYCHD 7.67GB

[复制链接]

级别:资源管理组

UID
1
注册时间
2017-10-20
最后登录
2018-10-22
听众
0
收听
0
主题
71065
蓝光币
91710 枚
贡献
139966 点
发表于 2018-10-12 01:55:00 | 显示全部楼层 |阅读模式

摩天救援/摩天大楼 Skyscraper.2018.3D.1080p.BluRay.x264-PSYCHD 7.67GB-1.jpg
◎译  名 摩天救援/摩天大楼(台)/高凶浩劫(港)/挺拔入云
◎片  名 Skyscraper
◎年  代 2018
◎产  地 美国
◎类  别 行动/惊悚/冒险
◎语  言 英语/粤语/汉语普通话
◎上映日期 2018-07-13(美国)/2018-07-20(中国大陆)
◎IMDb评分  5.9/10 from 45,533 users
◎IMDb链接  http://www.imdb.com/title/tt5758778/
◎豆瓣评分 6.4/10 from 68,655 users
◎豆瓣链接 https://movie.douban.com/subject/26804147/
◎片  长 102分钟
◎导  演 罗森·马歇尔·瑟伯 Rawson Marshall Thurber
◎主  演 道恩·强森 Dwayne Johnson
      内芙·坎贝尔 Neve Campbell
      黄经汉 Chin Han
      罗兰·默勒 Roland M?ller
      麦肯纳·罗伯茨 McKenna Roberts
      诺亚·科特雷尔 Noah Cottrell
      诺亚·泰勒 Noah Taylor
      巴勃罗·施瑞博尔 Pablo Schreiber
      凯文·兰金 Kevin Rankin
      昆凌 Hannah Quinlivan
      文峰 Byron Mann
      马特·欧莱瑞 Matt O'Leary
      比特里斯·金 Beatrice King
      马志 Tzi Ma
      保罗·麦克吉莱恩 Paul McGillion
      吴嘉星 Kathy Wu
      艾德里安·霍姆斯 Adrian Holmes
      维努斯·特雷佐 Venus Terzo
      杰特·克莱恩 Jett Klyne
      拜伦·劳森 Byron Lawson
      关永扬 Darryl Quon
      法比欧·塔索恩 Fabio Tassone
      卡洛·余 Carlo Yu

◎简  介

  在香港市中心,天下上最高、结构最复杂的摩天大楼遭到破坏,危机一触即发。威尔·索耶(道恩·强森 饰)的妻子萨拉(内芙·坎贝尔 饰)和孩子们在98层被劫为人质,间接表露在前方上。威尔,这位战争豪杰、前联邦观察局救济队员,作为大楼的安保顾问,却被诬陷纵火和谋杀。他必须奋力救援家人,为自己洗脱罪名,关乎生死生死的高空使命就此展开。
  • Video
  • ID                                       : 1
  • Format                                   : AVC
  • Format/Info                              : Advanced Video Codec
  • Format profile                           : [email protected]
  • Format settings                          : CABAC / 5 Ref Frames
  • Format settings, CABAC                   : Yes
  • Format settings, ReFrames                : 5 frames
  • Codec ID                                 : V_MPEG4/ISO/AVC
  • Duration                                 : 1 h 42 min
  • Bit rate                                 : 10.1 Mb/s
  • Width                                    : 1 920 pixels
  • Height                                   : 800 pixels
  • Display aspect ratio                     : 2.40:1
  • Frame rate mode                          : Constant
  • Frame rate                               : 23.976 (24000/1001) FPS
  • Color space                              : YUV
  • Chroma subsampling                       : 4:2:0
  • Bit depth                                : 8 bits
  • Scan type                                : Progressive
  • Bits/(Pixel*Frame)                       : 0.273
  • Stream size                              : 7.18 GiB (94%)
  • Writing library                          : x264 core 157 r2935 545de2f
  • Encoding settings                        : cabac=1 / ref=5 / deblock=1:-3:-3 / analyse=0x3:0x113 / me=umh / subme=8 / psy=1 / psy_rd=1.00:0.00 / mixed_ref=1 / me_range=48 / chroma_me=1 / trellis=2 / 8x8dct=1 / cqm=0 / deadzone=21,11 / fast_pskip=0 / chroma_qp_offset=-2 / threads=24 / lookahead_threads=4 / sliced_threads=0 / nr=0 / decimate=1 / interlaced=0 / bluray_compat=0 / constrained_intra=0 / bframes=3 / b_pyramid=2 / b_adapt=2 / b_bias=0 / direct=3 / weightb=1 / open_gop=0 / weightp=2 / keyint=240 / keyint_min=24 / scenecut=40 / intra_refresh=0 / rc_lookahead=50 / rc=2pass / mbtree=1 / bitrate=10056 / ratetol=1.0 / qcomp=0.60 / qpmin=0 / qpmax=69 / qpstep=4 / cplxblur=20.0 / qblur=0.5 / frame-packing=3 / ip_ratio=1.40 / aq=3:0.80
  • Default                                  : Yes
  • Forced                                   : No
  • Color range                              : Limited
  • Matrix coefficients                      : BT.709
  • Audio
  • ID                                       : 2
  • Format                                   : AC-3
  • Format/Info                              : Audio Coding 3
  • Commercial name                          : Dolby Digital
  • Codec ID                                 : A_AC3
  • Duration                                 : 1 h 42 min
  • Bit rate mode                            : Constant
  • Bit rate                                 : 640 kb/s
  • Channel(s)                               : 6 channels
  • Channel layout                           : L R C LFE Ls Rs
  • Sampling rate                            : 48.0 kHz
  • Frame rate                               : 31.250 FPS (1536 SPF)
  • Bit depth                                : 16 bits
  • Compression mode                         : Lossy
  • Stream size                              : 469 MiB (6%)
  • Language                                 : English
  • Service kind                             : Complete Main
  • Default                                  : Yes
  • Forced                                   : No
  • Menu
  • 00:00:00.000                             : en:1
  • 00:04:24.764                             : en:2
  • 00:10:07.356                             : en:3
  • 00:16:09.927                             : en:4
  • 00:21:12.604                             : en:5
  • 00:25:34.991                             : en:6
  • 00:30:11.726                             : en:7
  • 00:35:23.913                             : en:8
  • 00:40:07.113                             : en:9
  • 00:47:18.961                             : en:10
  • 00:52:10.252                             : en:11
  • 00:58:16.784                             : en:12
  • 01:02:02.969                             : en:13
  • 01:05:29.634                             : en:14
  • 01:09:59.403                             : en:15
  • 01:14:31.425                             : en:16
  • 01:17:18.258                             : en:17
  • 01:23:33.341                             : en:18
  • 01:27:46.219                             : en:19
  • 01:32:54.569                             : en:20

复制代码

摩天救援/摩天大楼 Skyscraper.2018.3D.1080p.BluRay.x264-PSYCHD 7.67GB-2.jpg





本帖隐藏的下载地址需要VIP会员才可阅读,您需要升级才可阅读,点击这里升级VIP

回复

使用道具 举报

级别:普通观众 Lv.2

UID
4223
注册时间
2018-6-3
最后登录
2018-10-20
听众
0
收听
0
主题
0
蓝光币
49 枚
贡献
0 点
发表于 2018-10-12 11:20:48 | 显示全部楼层
3D文件才7G?
回复

使用道具 举报

级别:普通观众 Lv.2

UID
8219
注册时间
2018-10-11
最后登录
2018-10-18
听众
0
收听
0
主题
0
蓝光币
14 枚
贡献
0 点
发表于 2018-10-12 14:44:47 | 显示全部楼层
感谢分享论坛有你更精彩
回复

使用道具 举报

您需要登录后才可以回帖 登录 | 立即注册

本版积分规则

QQ|Archiver|手机版|小黑屋|HDchina论坛 |网站地图

GMT+8, 2018-10-23 02:37 , Processed in 0.185715 second(s), 38 queries .

Powered by Discuz! X3.4

© 2001-2017 Comsenz Inc.

返回顶部 联系我们