你所知道的4K资源这里全部都有 4K电影 | 4K视频 | 4K壁纸 | 4K MV 怎么播放4K视频 | 4K电视演示片

教你玩转4K私人与家庭影院存储 NAS组装 | 黑群辉 家庭/影院Nas论坛

4K家庭影院信号源与视频设备知识 4K蓝光高清播放机 - 那个品牌好? 4K投影机论坛 | 4K电视机论坛

手把手教你搭建属于自己的家庭影院 4K家庭影院案例 | 家庭影院音频 4K家庭影院论坛

查看: 56|回复: 3

[剧情片] 八四年夏天 Summer.of.84.2018.1080p.BluRay.REMUX.AVC.DTS-HD.MA.5.1-FGT 20.67GB

[复制链接]

级别:资源管理组

UID
1
注册时间
2017-10-20
最后登录
2018-10-22
听众
0
收听
0
主题
71065
蓝光币
91714 枚
贡献
139966 点
发表于 2018-10-12 01:52:48 | 显示全部楼层 |阅读模式

八四年炎天 Summer.of.84.2018.1080p.BluRay.REMUX.AVC.DTS-HD.MA.5.1-FGT 20.67GB-1.jpg
◎译  名 八四年炎天
◎片  名 Summer of '84
◎年  代 2018
◎产  地 加拿大/美国
◎类  别 剧情/惊悚/可骇
◎语  言 英语
◎上映日期 2018-01-22(圣丹斯电影节)/2018-08-10(美国)
◎IMDb评分  6.7/10 from 9,294 users
◎IMDb链接  http://www.imdb.com/title/tt5774450/
◎豆瓣评分 5.9/10 from 548 users
◎豆瓣链接 https://movie.douban.com/subject/27072838/
◎片  长 105分钟
◎导  演 弗朗索瓦·西玛德 Fran?ois Simard / 阿努克·惠斯塞尔 Anouk Whissell / 约恩-卡尔·惠斯塞尔 Yoann-Karl Whissell
◎主  演 格雷厄姆·维奇尔 Graham Verchere
      犹大·刘易斯 Judah Lewis
      凯勒布·埃默里 Caleb Emery
      科里·格鲁特-安德鲁 Cory Gruter-Andrew
      提拉·斯考比 Tiera Skovbye
      里奇·索莫 Rich Sommer
      贾森·加里-斯坦福德 Jason Gray-Stanford

◎简  介

  几个青春期的少年发现差人邻人是连环杀手,他们起头花时候监视这位邻人。但随着他们越来越接近发现真相,工作变得危险。
  • Video
  • ID                                       : 1
  • Format                                   : AVC
  • Format/Info                              : Advanced Video Codec
  • Format profile                           : [email protected]
  • Format settings                          : CABAC / 3 Ref Frames
  • Format settings, CABAC                   : Yes
  • Format settings, ReFrames                : 3 frames
  • Codec ID                                 : V_MPEG4/ISO/AVC
  • Duration                                 : 1 h 45 min
  • Bit rate mode                            : Variable
  • Bit rate                                 : 25.0 Mb/s
  • Maximum bit rate                         : 40.0 Mb/s
  • Width                                    : 1 920 pixels
  • Height                                   : 1 080 pixels
  • Display aspect ratio                     : 16:9
  • Frame rate mode                          : Constant
  • Frame rate                               : 23.976 (24000/1001) FPS
  • Color space                              : YUV
  • Chroma subsampling                       : 4:2:0
  • Bit depth                                : 8 bits
  • Scan type                                : Progressive
  • Bits/(Pixel*Frame)                       : 0.503
  • Stream size                              : 17.7 GiB (86%)
  • Title                                    : Summer.of.84.2018.1080p.BluRay.REMUX.AVC.DTS-HD.MA.5.1-FGT
  • Writing library                          : x264 core 148 r2694bm 3b70645
  • Encoding settings                        : cabac=1 / ref=4 / deblock=1:-1:-1 / analyse=0x3:0x133 / me=umh / subme=10 / psy=1 / psy_rd=1.00:0.15 / mixed_ref=1 / me_range=24 / chroma_me=1 / trellis=2 / 8x8dct=1 / cqm=0 / deadzone=21,11 / fast_pskip=1 / chroma_qp_offset=-3 / threads=12 / lookahead_threads=1 / sliced_threads=0 / slices=4 / nr=0 / decimate=1 / interlaced=0 / bluray_compat=1 / constrained_intra=0 / bframes=3 / b_pyramid=1 / b_adapt=2 / b_bias=0 / direct=3 / weightb=1 / open_gop=1 / weightp=1 / keyint=24 / keyint_min=1 / scenecut=40 / intra_refresh=0 / rc_lookahead=24 / rc=abr / mbtree=1 / bitrate=25000 / ratetol=1.0 / qcomp=0.60 / qpmin=0 / qpmax=69 / qpstep=4 / vbv_maxrate=40000 / vbv_bufsize=30000 / nal_hrd=vbr / filler=0 / ip_ratio=1.40 / aq=1:1.00
  • Language                                 : English
  • Default                                  : No
  • Forced                                   : No
  • Color range                              : Limited
  • Color primaries                          : BT.709
  • Transfer characteristics                 : BT.709
  • Matrix coefficients                      : BT.709
  • Audio #1
  • ID                                       : 2
  • Format                                   : DTS XLL
  • Format/Info                              : Digital Theater Systems
  • Commercial name                          : DTS-HD Master Audio
  • Codec ID                                 : A_DTS
  • Duration                                 : 1 h 45 min
  • Bit rate mode                            : Variable
  • Bit rate                                 : 1 706 kb/s
  • Channel(s)                               : 6 channels
  • Channel layout                           : C L R Ls Rs LFE
  • Sampling rate                            : 48.0 kHz
  • Frame rate                               : 93.750 FPS (512 SPF)
  • Bit depth                                : 16 bits
  • Compression mode                         : Lossless
  • Stream size                              : 1.26 GiB (6%)
  • Title                                    : Summer.of.84.2018.1080p.BluRay.REMUX.AVC.DTS-HD.MA.5.1-FGT
  • Language                                 : English
  • Default                                  : Yes
  • Forced                                   : No
  • Audio #2
  • ID                                       : 3
  • Format                                   : DTS
  • Format/Info                              : Digital Theater Systems
  • Codec ID                                 : A_DTS
  • Duration                                 : 1 h 45 min
  • Bit rate mode                            : Constant
  • Bit rate                                 : 1 509 kb/s
  • Channel(s)                               : 6 channels
  • Channel layout                           : C L R Ls Rs LFE
  • Sampling rate                            : 48.0 kHz
  • Frame rate                               : 93.750 FPS (512 SPF)
  • Bit depth                                : 16 bits
  • Compression mode                         : Lossy
  • Stream size                              : 1.11 GiB (5%)
  • Title                                    : Summer.of.84.2018.1080p.BluRay.REMUX.AVC.DTS-HD.MA.5.1-FGT
  • Language                                 : English
  • Default                                  : No
  • Forced                                   : No
  • Audio #3
  • ID                                       : 4
  • Format                                   : AC-3
  • Format/Info                              : Audio Coding 3
  • Commercial name                          : Dolby Digital
  • Codec ID                                 : A_AC3
  • Duration                                 : 1 h 45 min
  • Bit rate mode                            : Constant
  • Bit rate                                 : 384 kb/s
  • Channel(s)                               : 2 channels
  • Channel layout                           : L R
  • Sampling rate                            : 48.0 kHz
  • Frame rate                               : 31.250 FPS (1536 SPF)
  • Bit depth                                : 16 bits
  • Compression mode                         : Lossy
  • Stream size                              : 290 MiB (1%)
  • Title                                    : Summer.of.84.2018.1080p.BluRay.REMUX.AVC.DTS-HD.MA.5.1-FGT
  • Language                                 : English
  • Service kind                             : Complete Main
  • Default                                  : No
  • Forced                                   : No
  • Audio #4
  • ID                                       : 5
  • Format                                   : AC-3
  • Format/Info                              : Audio Coding 3
  • Commercial name                          : Dolby Digital
  • Codec ID                                 : A_AC3
  • Duration                                 : 1 h 45 min
  • Bit rate mode                            : Constant
  • Bit rate                                 : 384 kb/s
  • Channel(s)                               : 2 channels
  • Channel layout                           : L R
  • Sampling rate                            : 48.0 kHz
  • Frame rate                               : 31.250 FPS (1536 SPF)
  • Bit depth                                : 16 bits
  • Compression mode                         : Lossy
  • Stream size                              : 290 MiB (1%)
  • Title                                    : Summer.of.84.2018.1080p.BluRay.REMUX.AVC.DTS-HD.MA.5.1-FGT
  • Language                                 : French
  • Service kind                             : Complete Main
  • Default                                  : No
  • Forced                                   : No
  • Text
  • ID                                       : 6
  • Format                                   : PGS
  • Muxing mode                              : zlib
  • Codec ID                                 : S_HDMV/PGS
  • Codec ID/Info                            : Picture based subtitle format used on BDs/HD-DVDs
  • Duration                                 : 1 h 40 min
  • Bit rate                                 : 38.5 kb/s
  • Count of elements                        : 2006
  • Stream size                              : 27.7 MiB (0%)
  • Title                                    : English-PGS
  • Language                                 : English
  • Default                                  : Yes
  • Forced                                   : No
  • Menu
  • 00:00:00.000                             : en:Chapter 01
  • 00:20:00.949                             : en:Chapter 02
  • 00:40:02.483                             : en:Chapter 03
  • 01:00:04.434                             : en:Chapter 04
  • 01:20:04.800                             : en:Chapter 05
  • 01:30:06.651                             : en:Chapter 06
  • 01:41:03.432                             : en:Chapter 07

复制代码

八四年炎天 Summer.of.84.2018.1080p.BluRay.REMUX.AVC.DTS-HD.MA.5.1-FGT 20.67GB-2.png 八四年炎天 Summer.of.84.2018.1080p.BluRay.REMUX.AVC.DTS-HD.MA.5.1-FGT 20.67GB-3.png 八四年炎天 Summer.of.84.2018.1080p.BluRay.REMUX.AVC.DTS-HD.MA.5.1-FGT 20.67GB-4.png





Summer.of.84.2018.1080p.BluRay.REMUX.AVC.DTS-HD.MA.5.1-FGT.torrent (52.22 KB, 下载次数: 2, 售价: 2 枚蓝光币)
回复

使用道具 举报

级别:专业龙套 Lv.4

UID
3152
注册时间
2018-4-26
最后登录
2018-10-22
听众
0
收听
0
主题
0
蓝光币
78 枚
贡献
0 点
QQ
发表于 2018-10-12 13:32:19 | 显示全部楼层
恐怖电影。感觉这个评分还可以
回复

使用道具 举报

级别:专业龙套 Lv.4

UID
4064
注册时间
2018-5-27
最后登录
2018-10-21
听众
0
收听
0
主题
0
蓝光币
3 枚
贡献
0 点
发表于 2018-10-12 19:08:36 | 显示全部楼层
感谢分享!
回复

使用道具 举报

已抛锚 成长值: 240

级别:普通观众 Lv.2

UID
1196
注册时间
2018-2-11
最后登录
2018-10-18
听众
0
收听
0
主题
0
蓝光币
77 枚
贡献
0 点
QQ
发表于 7 天前 | 显示全部楼层
好片收下了。
好片收下了。
回复

使用道具 举报

您需要登录后才可以回帖 登录 | 立即注册

本版积分规则

QQ|Archiver|手机版|小黑屋|HDchina论坛 |网站地图

GMT+8, 2018-10-23 02:59 , Processed in 0.208811 second(s), 43 queries .

Powered by Discuz! X3.4

© 2001-2017 Comsenz Inc.

返回顶部 联系我们