你所知道的4K资源这里全部都有 4K电影 | 4K视频 | 4K壁纸 | 4K MV 怎么播放4K视频 | 4K电视演示片

教你玩转4K私人与家庭影院存储 NAS组装 | 黑群辉 家庭/影院Nas论坛

4K家庭影院信号源与视频设备知识 4K蓝光高清播放机 - 那个品牌好? 4K投影机论坛 | 4K电视机论坛

手把手教你搭建属于自己的家庭影院 4K家庭影院案例 | 家庭影院音频 4K家庭影院论坛

查看: 89|回复: 3

[剧情片] 八四年夏天 Summer.of.84.2018.1080p.BluRay.REMUX.AVC.DTS-HD.MA.5.1-FGT 20.67GB

[复制链接]

级别:资源管理组

UID
1
注册时间
2017-10-20
最后登录
2018-12-14
听众
0
收听
0
主题
73005
蓝光币
104566 枚
贡献
142813 点
发表于 2018-10-12 01:52:48 | 显示全部楼层 |阅读模式

八四年炎天 Summer.of.84.2018.1080p.BluRay.REMUX.AVC.DTS-HD.MA.5.1-FGT 20.67GB-1.jpg
◎译  名 八四年炎天
◎片  名 Summer of '84
◎年  代 2018
◎产  地 加拿大/美国
◎类  别 剧情/惊悚/可骇
◎语  言 英语
◎上映日期 2018-01-22(圣丹斯电影节)/2018-08-10(美国)
◎IMDb评分  6.7/10 from 9,294 users
◎IMDb链接  http://www.imdb.com/title/tt5774450/
◎豆瓣评分 5.9/10 from 548 users
◎豆瓣链接 https://movie.douban.com/subject/27072838/
◎片  长 105分钟
◎导  演 弗朗索瓦·西玛德 Fran?ois Simard / 阿努克·惠斯塞尔 Anouk Whissell / 约恩-卡尔·惠斯塞尔 Yoann-Karl Whissell
◎主  演 格雷厄姆·维奇尔 Graham Verchere
      犹大·刘易斯 Judah Lewis
      凯勒布·埃默里 Caleb Emery
      科里·格鲁特-安德鲁 Cory Gruter-Andrew
      提拉·斯考比 Tiera Skovbye
      里奇·索莫 Rich Sommer
      贾森·加里-斯坦福德 Jason Gray-Stanford

◎简  介

  几个青春期的少年发现差人邻人是连环杀手,他们起头花时候监视这位邻人。但随着他们越来越接近发现真相,工作变得危险。

  1. Video
  2. ID                                       : 1
  3. Format                                   : AVC
  4. Format/Info                              : Advanced Video Codec
  5. Format profile                           : [url=/cdn-cgi/l/email-protection][email protected][/url]
  6. Format settings                          : CABAC / 3 Ref Frames
  7. Format settings, CABAC                   : Yes
  8. Format settings, ReFrames                : 3 frames
  9. Codec ID                                 : V_MPEG4/ISO/AVC
  10. Duration                                 : 1 h 45 min
  11. Bit rate mode                            : Variable
  12. Bit rate                                 : 25.0 Mb/s
  13. Maximum bit rate                         : 40.0 Mb/s
  14. Width                                    : 1 920 pixels
  15. Height                                   : 1 080 pixels
  16. Display aspect ratio                     : 16:9
  17. Frame rate mode                          : Constant
  18. Frame rate                               : 23.976 (24000/1001) FPS
  19. Color space                              : YUV
  20. Chroma subsampling                       : 4:2:0
  21. Bit depth                                : 8 bits
  22. Scan type                                : Progressive
  23. Bits/(Pixel*Frame)                       : 0.503
  24. Stream size                              : 17.7 GiB (86%)
  25. Title                                    : Summer.of.84.2018.1080p.BluRay.REMUX.AVC.DTS-HD.MA.5.1-FGT
  26. Writing library                          : x264 core 148 r2694bm 3b70645
  27. Encoding settings                        : cabac=1 / ref=4 / deblock=1:-1:-1 / analyse=0x3:0x133 / me=umh / subme=10 / psy=1 / psy_rd=1.00:0.15 / mixed_ref=1 / me_range=24 / chroma_me=1 / trellis=2 / 8x8dct=1 / cqm=0 / deadzone=21,11 / fast_pskip=1 / chroma_qp_offset=-3 / threads=12 / lookahead_threads=1 / sliced_threads=0 / slices=4 / nr=0 / decimate=1 / interlaced=0 / bluray_compat=1 / constrained_intra=0 / bframes=3 / b_pyramid=1 / b_adapt=2 / b_bias=0 / direct=3 / weightb=1 / open_gop=1 / weightp=1 / keyint=24 / keyint_min=1 / scenecut=40 / intra_refresh=0 / rc_lookahead=24 / rc=abr / mbtree=1 / bitrate=25000 / ratetol=1.0 / qcomp=0.60 / qpmin=0 / qpmax=69 / qpstep=4 / vbv_maxrate=40000 / vbv_bufsize=30000 / nal_hrd=vbr / filler=0 / ip_ratio=1.40 / aq=1:1.00
  28. Language                                 : English
  29. Default                                  : No
  30. Forced                                   : No
  31. Color range                              : Limited
  32. Color primaries                          : BT.709
  33. Transfer characteristics                 : BT.709
  34. Matrix coefficients                      : BT.709

  35. Audio #1
  36. ID                                       : 2
  37. Format                                   : DTS XLL
  38. Format/Info                              : Digital Theater Systems
  39. Commercial name                          : DTS-HD Master Audio
  40. Codec ID                                 : A_DTS
  41. Duration                                 : 1 h 45 min
  42. Bit rate mode                            : Variable
  43. Bit rate                                 : 1 706 kb/s
  44. Channel(s)                               : 6 channels
  45. Channel layout                           : C L R Ls Rs LFE
  46. Sampling rate                            : 48.0 kHz
  47. Frame rate                               : 93.750 FPS (512 SPF)
  48. Bit depth                                : 16 bits
  49. Compression mode                         : Lossless
  50. Stream size                              : 1.26 GiB (6%)
  51. Title                                    : Summer.of.84.2018.1080p.BluRay.REMUX.AVC.DTS-HD.MA.5.1-FGT
  52. Language                                 : English
  53. Default                                  : Yes
  54. Forced                                   : No

  55. Audio #2
  56. ID                                       : 3
  57. Format                                   : DTS
  58. Format/Info                              : Digital Theater Systems
  59. Codec ID                                 : A_DTS
  60. Duration                                 : 1 h 45 min
  61. Bit rate mode                            : Constant
  62. Bit rate                                 : 1 509 kb/s
  63. Channel(s)                               : 6 channels
  64. Channel layout                           : C L R Ls Rs LFE
  65. Sampling rate                            : 48.0 kHz
  66. Frame rate                               : 93.750 FPS (512 SPF)
  67. Bit depth                                : 16 bits
  68. Compression mode                         : Lossy
  69. Stream size                              : 1.11 GiB (5%)
  70. Title                                    : Summer.of.84.2018.1080p.BluRay.REMUX.AVC.DTS-HD.MA.5.1-FGT
  71. Language                                 : English
  72. Default                                  : No
  73. Forced                                   : No

  74. Audio #3
  75. ID                                       : 4
  76. Format                                   : AC-3
  77. Format/Info                              : Audio Coding 3
  78. Commercial name                          : Dolby Digital
  79. Codec ID                                 : A_AC3
  80. Duration                                 : 1 h 45 min
  81. Bit rate mode                            : Constant
  82. Bit rate                                 : 384 kb/s
  83. Channel(s)                               : 2 channels
  84. Channel layout                           : L R
  85. Sampling rate                            : 48.0 kHz
  86. Frame rate                               : 31.250 FPS (1536 SPF)
  87. Bit depth                                : 16 bits
  88. Compression mode                         : Lossy
  89. Stream size                              : 290 MiB (1%)
  90. Title                                    : Summer.of.84.2018.1080p.BluRay.REMUX.AVC.DTS-HD.MA.5.1-FGT
  91. Language                                 : English
  92. Service kind                             : Complete Main
  93. Default                                  : No
  94. Forced                                   : No

  95. Audio #4
  96. ID                                       : 5
  97. Format                                   : AC-3
  98. Format/Info                              : Audio Coding 3
  99. Commercial name                          : Dolby Digital
  100. Codec ID                                 : A_AC3
  101. Duration                                 : 1 h 45 min
  102. Bit rate mode                            : Constant
  103. Bit rate                                 : 384 kb/s
  104. Channel(s)                               : 2 channels
  105. Channel layout                           : L R
  106. Sampling rate                            : 48.0 kHz
  107. Frame rate                               : 31.250 FPS (1536 SPF)
  108. Bit depth                                : 16 bits
  109. Compression mode                         : Lossy
  110. Stream size                              : 290 MiB (1%)
  111. Title                                    : Summer.of.84.2018.1080p.BluRay.REMUX.AVC.DTS-HD.MA.5.1-FGT
  112. Language                                 : French
  113. Service kind                             : Complete Main
  114. Default                                  : No
  115. Forced                                   : No

  116. Text
  117. ID                                       : 6
  118. Format                                   : PGS
  119. Muxing mode                              : zlib
  120. Codec ID                                 : S_HDMV/PGS
  121. Codec ID/Info                            : Picture based subtitle format used on BDs/HD-DVDs
  122. Duration                                 : 1 h 40 min
  123. Bit rate                                 : 38.5 kb/s
  124. Count of elements                        : 2006
  125. Stream size                              : 27.7 MiB (0%)
  126. Title                                    : English-PGS
  127. Language                                 : English
  128. Default                                  : Yes
  129. Forced                                   : No

  130. Menu
  131. 00:00:00.000                             : en:Chapter 01
  132. 00:20:00.949                             : en:Chapter 02
  133. 00:40:02.483                             : en:Chapter 03
  134. 01:00:04.434                             : en:Chapter 04
  135. 01:20:04.800                             : en:Chapter 05
  136. 01:30:06.651                             : en:Chapter 06
  137. 01:41:03.432                             : en:Chapter 07
复制代码

复制代码

八四年炎天 Summer.of.84.2018.1080p.BluRay.REMUX.AVC.DTS-HD.MA.5.1-FGT 20.67GB-2.png 八四年炎天 Summer.of.84.2018.1080p.BluRay.REMUX.AVC.DTS-HD.MA.5.1-FGT 20.67GB-3.png 八四年炎天 Summer.of.84.2018.1080p.BluRay.REMUX.AVC.DTS-HD.MA.5.1-FGT 20.67GB-4.png





回复

使用道具 举报

级别:荣升主角 Lv.5

UID
3152
注册时间
2018-4-26
最后登录
2018-12-14
听众
3
收听
0
主题
0
蓝光币
239 枚
贡献
0 点
QQ
发表于 2018-10-12 13:32:19 | 显示全部楼层
恐怖电影。感觉这个评分还可以
回复

使用道具 举报

级别:专业龙套 Lv.4

UID
4064
注册时间
2018-5-27
最后登录
2018-12-8
听众
3
收听
0
主题
0
蓝光币
0 枚
贡献
0 点
发表于 2018-10-12 19:08:36 | 显示全部楼层
感谢分享!
回复

使用道具 举报

级别:群众演员 Lv.3

UID
1196
注册时间
2018-2-11
最后登录
2018-12-13
听众
2
收听
0
主题
0
蓝光币
96 枚
贡献
0 点
QQ
发表于 2018-10-16 08:57:22 | 显示全部楼层
好片收下了。
好片收下了。
回复

使用道具 举报

懒得打字嘛,点击右侧快捷回复 【右侧内容,后台自定义】
您需要登录后才可以回帖 登录 | 立即注册

本版积分规则

QQ|Archiver|手机版|小黑屋|中国高清网 |网站地图

GMT+8, 2018-12-14 20:49 , Processed in 0.142397 second(s), 42 queries .

Powered by HDchina X3.4

Copyright 2017-2018©HDchina.All right reserved

返回顶部 联系我们