你所知道的4K资源这里全部都有 4K电影 | 4K视频 | 4K壁纸 | 4K MV 怎么播放4K视频 | 4K电视演示片

教你玩转4K私人与家庭影院存储 NAS组装 | 黑群辉 家庭/影院Nas论坛

4K家庭影院信号源与视频设备知识 4K蓝光高清播放机 - 那个品牌好? 4K投影机论坛 | 4K电视机论坛

手把手教你搭建属于自己的家庭影院 4K家庭影院案例 | 家庭影院音频 4K家庭影院论坛

查看: 77|回复: 1

钢之炼金术师/钢之炼金术师 真人版 Fullmetal.Alchemist.2017.JAPANESE.2160p.BluRay.REMUX.HEVC.DTS-HD.MA.5.1-FGT 77.76GB

[复制链接]

级别:资源管理组

UID
1
注册时间
2017-10-20
最后登录
2018-12-14
听众
0
收听
0
主题
73005
蓝光币
104552 枚
贡献
142813 点
发表于 2018-10-12 01:52:05 | 显示全部楼层 |阅读模式

钢之炼金术师/钢之炼金术师 真人版 Fullmetal.Alchemist.2017.JAPANESE.2160p.BluRay.REMUX.HEVC.DTS-HD.MA.5.1-FGT 77.76GB-1.jpg
◎译  名 钢之炼金术师/钢之炼金术师 真人版
◎片  名 鋼の錬金術師
◎年  代 2017
◎产  地 日本
◎类  别 行动
◎语  言 日语
◎上映日期 2017-10-25(东京电影节)/2017-12-01(日本)
◎IMDb评分  5.9/10 from 15,448 users
◎IMDb链接  http://www.imdb.com/title/tt5607028/
◎豆瓣评分 4.6/10 from 5,299 users
◎豆瓣链接 https://movie.douban.com/subject/26761256/
◎片  长 134分钟
◎导  演 曾利文彦 Fumihiko Sori
◎主  演 山田凉介 Ry?suke Yamada
      本田翼 Tsubasa Honda
      藤冈靛 Tatsuo Dean Fujioka
      佐藤隆太 Ry?ta Sat?
      大泉洋 Y? ?izumi
      松雪泰子 Yasuko Matsuyuki
      本乡奏多 Kanata Hong?
      莲佛美沙子 Misako Renbutsu
      内山信二 Shinji Uchiyama
      石丸谦二郎 Kenjir? Ishimaru
      小日向文世 Fumiyo Kohinata
      国村隼 Jun Kunimura
      夏菜 Natsuna

◎简  介

  哀痛的爱德华和阿尔冯斯两兄弟,试图操纵炼金术中最大的忌讳——人体炼成术救活放手人寰的母亲,谁知却遭受庞大的灾难。落空身材的阿尔冯斯,其灵魂被封禁在铠甲中,爱德华则以自己的右臂和左脚为价格,迫使弟弟止步冥国门前。很多年后,爱德华(山田凉介 饰)长大为这个国家中最年轻的钢之炼金术师,他与弟弟(水石亚飞梦 配音)高低一心,配合奔驰在寻觅贤者之石的门路上。与此同时,奥秘的人造人拉丝特(松雪泰子 饰)、恩维(本乡奏多 饰)盘桓这个国家的角落,她们策划者可骇的活动,一时候上空阴云密布……
  本片按照荒川弘的原作漫画改编。

  1. Video
  2. ID                                       : 1
  3. Format                                   : HEVC
  4. Format/Info                              : High Efficiency Video Coding
  5. Format profile                           : Main [url=/cdn-cgi/l/email-protection][email protected][/url]@High
  6. Codec ID                                 : V_MPEGH/ISO/HEVC
  7. Duration                                 : 2 h 13 min
  8. Bit rate                                 : 77.0 Mb/s
  9. Width                                    : 3 840 pixels
  10. Height                                   : 2 160 pixels
  11. Display aspect ratio                     : 16:9
  12. Frame rate mode                          : Constant
  13. Frame rate                               : 23.976 (24000/1001) FPS
  14. Color space                              : YUV
  15. Chroma subsampling                       : 4:2:0 (Type 2)
  16. Bit depth                                : 10 bits
  17. Bits/(Pixel*Frame)                       : 0.387
  18. Stream size                              : 71.9 GiB (92%)
  19. Title                                    : Fullmetal.Alchemist.2017.JAPANESE.2160p.BluRay.REMUX.HEVC.DTS-HD.MA.5.1-FGT
  20. Default                                  : Yes
  21. Forced                                   : No
  22. Color range                              : Limited
  23. Color primaries                          : BT.2020
  24. Transfer characteristics                 : PQ
  25. Matrix coefficients                      : BT.2020 non-constant

  26. Audio #1
  27. ID                                       : 2
  28. Format                                   : DTS XLL
  29. Format/Info                              : Digital Theater Systems
  30. Commercial name                          : DTS-HD Master Audio
  31. Codec ID                                 : A_DTS
  32. Duration                                 : 2 h 13 min
  33. Bit rate mode                            : Variable
  34. Bit rate                                 : 3 924 kb/s
  35. Channel(s)                               : 6 channels
  36. Channel layout                           : C L R Ls Rs LFE
  37. Sampling rate                            : 48.0 kHz
  38. Frame rate                               : 93.750 FPS (512 SPF)
  39. Bit depth                                : 24 bits
  40. Compression mode                         : Lossless
  41. Stream size                              : 3.67 GiB (5%)
  42. Title                                    : Fullmetal.Alchemist.2017.JAPANESE.2160p.BluRay.REMUX.HEVC.DTS-HD.MA.5.1-FGT
  43. Language                                 : Japanese
  44. Default                                  : Yes
  45. Forced                                   : No

  46. Audio #2
  47. ID                                       : 3
  48. Format                                   : PCM
  49. Format settings                          : Little / Signed
  50. Codec ID                                 : A_PCM/INT/LIT
  51. Duration                                 : 2 h 13 min
  52. Bit rate mode                            : Constant
  53. Bit rate                                 : 2 304 kb/s
  54. Channel(s)                               : 2 channels
  55. Sampling rate                            : 48.0 kHz
  56. Frame rate                               : 200.000 FPS (240 SPF)
  57. Bit depth                                : 24 bits
  58. Stream size                              : 2.15 GiB (3%)
  59. Title                                    : Fullmetal.Alchemist.2017.JAPANESE.2160p.BluRay.REMUX.HEVC.DTS-HD.MA.5.1-FGT
  60. Language                                 : Japanese
  61. Default                                  : No
  62. Forced                                   : No

  63. Text #1
  64. ID                                       : 4
  65. Format                                   : UTF-8
  66. Codec ID                                 : S_TEXT/UTF8
  67. Codec ID/Info                            : UTF-8 Plain Text
  68. Duration                                 : 2 h 6 min
  69. Bit rate                                 : 27 b/s
  70. Count of elements                        : 1220
  71. Stream size                              : 25.3 KiB (0%)
  72. Title                                    : English-SRT
  73. Language                                 : English
  74. Default                                  : Yes
  75. Forced                                   : Yes

  76. Text #2
  77. ID                                       : 5
  78. Format                                   : PGS
  79. Muxing mode                              : zlib
  80. Codec ID                                 : S_HDMV/PGS
  81. Codec ID/Info                            : Picture based subtitle format used on BDs/HD-DVDs
  82. Duration                                 : 2 h 11 min
  83. Bit rate                                 : 29.1 kb/s
  84. Count of elements                        : 2658
  85. Stream size                              : 27.3 MiB (0%)
  86. Title                                    : Japanese-PGS
  87. Language                                 : Japanese
  88. Default                                  : No
  89. Forced                                   : No

  90. Menu
  91. 00:00:00.000                             : :Chapter 1
  92. 00:06:42.276                             : :Chapter 2
  93. 00:19:11.567                             : :Chapter 3
  94. 00:26:41.433                             : :Chapter 4
  95. 00:35:23.162                             : :Chapter 5
  96. 00:47:11.328                             : :Chapter 6
  97. 00:55:32.370                             : :Chapter 7
  98. 01:04:24.819                             : :Chapter 8
  99. 01:17:54.586                             : :Chapter 9
  100. 01:25:32.585                             : :Chapter 10
  101. 01:33:52.626                             : :Chapter 11
  102. 01:49:45.203                             : :Chapter 12
  103. 01:59:13.312                             : :Chapter 13
  104. 02:08:04.676                             : :Chapter 14
复制代码

复制代码

钢之炼金术师/钢之炼金术师 真人版 Fullmetal.Alchemist.2017.JAPANESE.2160p.BluRay.REMUX.HEVC.DTS-HD.MA.5.1-FGT 77.76GB-2.png 钢之炼金术师/钢之炼金术师 真人版 Fullmetal.Alchemist.2017.JAPANESE.2160p.BluRay.REMUX.HEVC.DTS-HD.MA.5.1-FGT 77.76GB-3.png 钢之炼金术师/钢之炼金术师 真人版 Fullmetal.Alchemist.2017.JAPANESE.2160p.BluRay.REMUX.HEVC.DTS-HD.MA.5.1-FGT 77.76GB-4.png





回复

使用道具 举报

级别:荣升主角 Lv.5

UID
1067
注册时间
2018-2-6
最后登录
2018-12-14
听众
2
收听
0
主题
0
蓝光币
719 枚
贡献
0 点
发表于 2018-10-12 12:04:48 | 显示全部楼层
感谢楼主的无私分享!
回复

使用道具 举报

懒得打字嘛,点击右侧快捷回复 【右侧内容,后台自定义】
您需要登录后才可以回帖 登录 | 立即注册

本版积分规则

QQ|Archiver|手机版|小黑屋|中国高清网 |网站地图

GMT+8, 2018-12-14 19:58 , Processed in 0.137567 second(s), 41 queries .

Powered by HDchina X3.4

Copyright 2017-2018©HDchina.All right reserved

返回顶部 联系我们