你所知道的4K资源这里全部都有 4K电影 | 4K视频 | 4K壁纸 | 4K MV 怎么播放4K视频 | 4K电视演示片

教你玩转4K私人与家庭影院存储 NAS组装 | 黑群辉 家庭/影院Nas论坛

4K家庭影院信号源与视频设备知识 4K蓝光高清播放机 - 那个品牌好? 4K投影机论坛 | 4K电视机论坛

手把手教你搭建属于自己的家庭影院 4K家庭影院案例 | 家庭影院音频 4K家庭影院论坛

查看: 102|回复: 2

[动作片] 秃鹰七十二小时/秃鹰的三天 Three.Days.Of.The.Condor.1975.1080p.BluRay.x264-HDMI 8.75GB

[复制链接]

级别:资源管理组

UID
1
注册时间
2017-10-20
最后登录
2018-12-14
听众
0
收听
0
主题
73005
蓝光币
104556 枚
贡献
142813 点
发表于 2018-10-12 01:50:25 | 显示全部楼层 |阅读模式

秃鹰七十二小时/秃鹰的三天 Three.Days.Of.The.Condor.1975.1080p.BluRay.x264-HDMI 8.75GB-1.jpg
◎译  名 秃鹰七十二小时/秃鹰的三天/豪杰不流泪/秃鹰72小时/追杀
◎片  名 Three Days of the Condor
◎年  代 1975
◎产  地 美国
◎类  别 行动/剧情/惊悚
◎语  言 英语/法语
◎上映日期 1975-09-24(美国)
◎IMDb评分  7.5/10 from 40,983 users
◎IMDb链接  http://www.imdb.com/title/tt0073802/
◎豆瓣评分 6.8/10 from 844 users
◎豆瓣链接 https://movie.douban.com/subject/1299170/
◎片  长 117分钟
◎导  演 西德尼·波拉克 Sydney Pollack
◎主  演 罗伯特·雷德福 Robert Redford
      费·唐纳薇 Faye Dunaway
      克里夫·罗伯逊 Cliff Robertson
      马克斯·冯·西多 Max von Sydow
      约翰·豪斯曼 John Houseman
      艾迪生·鲍威尔 Addison Powell
      沃尔特·麦金恩 Walter McGinn
      蒂娜·陈 Tina Chen
      唐麦克亨利 Don McHenry
      杰斯·奥苏纳 Jess Osuna
      迪诺·纳里扎诺 Dino Narizzano

◎简  介

  美国中心情报局观察员透纳,自从发现局内不成告人的活动,就此身陷连续串灾难事务。一日,两名男人冲进办公室,狙杀一切的员工,惟有透纳有幸逃走。

◎获奖情况

  第48届奥斯卡金像奖  (1976)
  最好剪辑(提名) Fredric Steinkamp / Don Guidice

  1. Video
  2. ID                                       : 1
  3. Format                                   : AVC
  4. Format/Info                              : Advanced Video Codec
  5. Format profile                           : [url=/cdn-cgi/l/email-protection][email protected][/url]
  6. Format settings, CABAC                   : Yes
  7. Format settings, ReFrames                : 5 frames
  8. Codec ID                                 : V_MPEG4/ISO/AVC
  9. Duration                                 : 1h 57mn
  10. Bit rate                                 : 9 184 Kbps
  11. Width                                    : 1 920 pixels
  12. Height                                   : 800 pixels
  13. Display aspect ratio                     : 2.40:1
  14. Frame rate mode                          : Constant
  15. Frame rate                               : 23.976 (24000/1001) fps
  16. Color space                              : YUV
  17. Chroma subsampling                       : 4:2:0
  18. Bit depth                                : 8 bits
  19. Scan type                                : Progressive
  20. Bits/(Pixel*Frame)                       : 0.249
  21. Stream size                              : 7.34 GiB (84%)
  22. Writing library                          : x264 core 75 r1259M dd026f2
  23. Encoding settings                        : cabac=1 / ref=5 / deblock=1:0:0 / analyse=0x3:0x2 / me=umh / subme=7 / psy=1 / psy_rd=1.0:0.0 / mixed_ref=1 / me_range=16 / chroma_me=1 / trellis=1 / 8x8dct=1 / cqm=0 / deadzone=21,11 / chroma_qp_offset=-2 / threads=12 / nr=0 / decimate=1 / mbaff=0 / bframes=3 / b_pyramid=1 / b_adapt=1 / b_bias=0 / direct=1 / wpredb=1 / keyint=250 / keyint_min=25 / scenecut=40 / rc=2pass / mbtree=0 / bitrate=9184 / ratetol=1.0 / qcomp=0.60 / qpmin=10 / qpmax=51 / qpstep=4 / cplxblur=20.0 / qblur=0.5 / ip_ratio=1.40 / pb_ratio=1.30 / aq=1:1.00 / pulldown=0 / nal_hrd=0
  24. Language                                 : English
  25. Default                                  : No
  26. Forced                                   : No

  27. Audio
  28. ID                                       : 2
  29. Format                                   : DTS
  30. Format/Info                              : Digital Theater Systems
  31. Mode                                     : 16
  32. Format settings, Endianness              : Big
  33. Codec ID                                 : A_DTS
  34. Duration                                 : 1h 57mn
  35. Bit rate mode                            : Constant
  36. Bit rate                                 : 1 509 Kbps
  37. Channel(s)                               : 6 channels
  38. Channel positions                        : Front: L C R, Side: L R, LFE
  39. Sampling rate                            : 48.0 KHz
  40. Frame rate                               : 93.750 fps (512 spf)
  41. Bit depth                                : 24 bits
  42. Compression mode                         : Lossy
  43. Stream size                              : 1.23 GiB (14%)
  44. Language                                 : English
  45. Default                                  : Yes
  46. Forced                                   : No

  47. Text
  48. ID                                       : 3
  49. Format                                   : UTF-8
  50. Codec ID                                 : S_TEXT/UTF8
  51. Codec ID/Info                            : UTF-8 Plain Text
  52. Language                                 : English
  53. Default                                  : Yes
  54. Forced                                   : No
复制代码

复制代码

秃鹰七十二小时/秃鹰的三天 Three.Days.Of.The.Condor.1975.1080p.BluRay.x264-HDMI 8.75GB-2.png 秃鹰七十二小时/秃鹰的三天 Three.Days.Of.The.Condor.1975.1080p.BluRay.x264-HDMI 8.75GB-3.png 秃鹰七十二小时/秃鹰的三天 Three.Days.Of.The.Condor.1975.1080p.BluRay.x264-HDMI 8.75GB-4.png 秃鹰七十二小时/秃鹰的三天 Three.Days.Of.The.Condor.1975.1080p.BluRay.x264-HDMI 8.75GB-5.png 秃鹰七十二小时/秃鹰的三天 Three.Days.Of.The.Condor.1975.1080p.BluRay.x264-HDMI 8.75GB-6.png 秃鹰七十二小时/秃鹰的三天 Three.Days.Of.The.Condor.1975.1080p.BluRay.x264-HDMI 8.75GB-7.png





回复

使用道具 举报

级别:普通观众 Lv.2

UID
8219
注册时间
2018-10-11
最后登录
2018-12-14
听众
2
收听
0
主题
0
蓝光币
28 枚
贡献
0 点
发表于 2018-10-12 14:28:09 | 显示全部楼层
老片新看,楼主棒棒的!!!
回复

使用道具 举报

级别:荣升主角 Lv.5

UID
2542
注册时间
2018-3-27
最后登录
2018-12-14
听众
2
收听
0
主题
0
蓝光币
982 枚
贡献
0 点
发表于 2018-10-12 18:00:58 | 显示全部楼层
这个还有美剧版的
回复

使用道具 举报

懒得打字嘛,点击右侧快捷回复 【右侧内容,后台自定义】
您需要登录后才可以回帖 登录 | 立即注册

本版积分规则

QQ|Archiver|手机版|小黑屋|中国高清网 |网站地图

GMT+8, 2018-12-14 20:23 , Processed in 0.122979 second(s), 41 queries .

Powered by HDchina X3.4

Copyright 2017-2018©HDchina.All right reserved

返回顶部 联系我们