你所知道的4K资源这里全部都有 4K电影 | 4K视频 | 4K壁纸 | 4K MV 怎么播放4K视频 | 4K电视演示片

教你玩转4K私人与家庭影院存储 NAS组装 | 黑群辉 家庭/影院Nas论坛

4K家庭影院信号源与视频设备知识 4K蓝光高清播放机 - 那个品牌好? 4K投影机论坛 | 4K电视机论坛

手把手教你搭建属于自己的家庭影院 4K家庭影院案例 | 家庭影院音频 4K家庭影院论坛

查看: 78|回复: 1

[冒险片] 寻宝假期/掉线寻宝记 Without.A.Paddle.2004.1080p.BluRay.x264-RETREAT 7.95GB

[复制链接]

级别:资源管理组

UID
1
注册时间
2017-10-20
最后登录
2018-12-14
听众
0
收听
0
主题
73005
蓝光币
104570 枚
贡献
142813 点
发表于 2018-10-12 01:50:09 | 显示全部楼层 |阅读模式

寻宝假期/掉线寻宝记 Without.A.Paddle.2004.1080p.BluRay.x264-RETREAT 7.95GB-1.jpg
◎译  名 寻宝假期/掉线寻宝记/掘金三勇士/扑水假期/掘金三勇士/寻宝总带动
◎片  名 Without a Paddle
◎年  代 2004
◎产  地 美国
◎类  别 冒险/笑剧/悬疑
◎语  言 英语
◎上映日期 2004-08-20
◎IMDb评分  5.9/10 from 40,693 users
◎IMDb链接  http://www.imdb.com/title/tt0364751/
◎豆瓣评分 6.6/10 from 987 users
◎豆瓣链接 https://movie.douban.com/subject/1308756/
◎片  长 95 分钟
◎导  演 史蒂文·布里尔 Steven Brill
◎主  演 马修·里沃德 Matthew Lillard

◎简  介

  俄勒冈的汤姆(戴克斯?夏普德 Dax Shepard 饰)、杰瑞(马修?里沃德 Matthew Lillard 饰)、丹(赛斯?格林 Seth Green 饰)和比利是四个从小玩到大,爱好冒险和刺激的朋友,二十岁那年,比利出门远行离别了三人。十年今后,比利在观光中因变乱身亡,三个老伙计再度在葬礼上重逢,三十而立的的三人生活各有懊恼,他们回到童年时的树屋,发现了比利留给他们的“藏宝图”,比利美好的观光履历吸引着他们,三人决议顿时按图出行,完成童年的梦。一路上,三人碰见了视丹为自己孩子的巨熊、在山谷中种植囤积大量大麻的大盗二人组,还有自诩为自然人的两个美丽姑娘。一路上的冒险履历,使三人对人生有了全新的熟悉……

  1. Video
  2. ID                                       : 1
  3. Format                                   : AVC
  4. Format/Info                              : Advanced Video Codec
  5. Format profile                           : [url=/cdn-cgi/l/email-protection][email protected][/url]
  6. Format settings, CABAC                   : Yes
  7. Format settings, ReFrames                : 5 frames
  8. Codec ID                                 : V_MPEG4/ISO/AVC
  9. Duration                                 : 1h 38mn
  10. Bit rate                                 : 10.9 Mbps
  11. Width                                    : 1 920 pixels
  12. Height                                   : 816 pixels
  13. Display aspect ratio                     : 2.35:1
  14. Frame rate mode                          : Constant
  15. Frame rate                               : 23.976 fps
  16. Color space                              : YUV
  17. Chroma subsampling                       : 4:2:0
  18. Bit depth                                : 8 bits
  19. Scan type                                : Progressive
  20. Bits/(Pixel*Frame)                       : 0.289
  21. Stream size                              : 7.35 GiB (92%)
  22. Writing library                          : x264 core 67 r1163 3f56e27
  23. Encoding settings                        : cabac=1 / ref=5 / deblock=1:0:0 / analyse=0x3:0x133 / me=umh / subme=7 / psy_rd=1.0:0.0 / mixed_ref=1 / me_range=16 / chroma_me=1 / trellis=1 / 8x8dct=1 / cqm=0 / deadzone=21,11 / chroma_qp_offset=-2 / threads=6 / nr=0 / decimate=1 / mbaff=0 / bframes=3 / b_pyramid=1 / b_adapt=1 / b_bias=0 / direct=1 / wpredb=1 / keyint=250 / keyint_min=25 / scenecut=40 / rc=2pass / bitrate=10866 / ratetol=1.0 / qcomp=0.60 / qpmin=10 / qpmax=51 / qpstep=4 / cplxblur=20.0 / qblur=0.5 / ip_ratio=1.40 / pb_ratio=1.30 / aq=1:1.00
  24. Default                                  : Yes
  25. Forced                                   : No

  26. Audio
  27. ID                                       : 2
  28. Format                                   : AC-3
  29. Format/Info                              : Audio Coding 3
  30. Mode extension                           : CM (complete main)
  31. Format settings, Endianness              : Big
  32. Codec ID                                 : A_AC3
  33. Duration                                 : 1h 38mn
  34. Bit rate mode                            : Constant
  35. Bit rate                                 : 640 Kbps
  36. Channel(s)                               : 6 channels
  37. Channel positions                        : Front: L C R, Side: L R, LFE
  38. Sampling rate                            : 48.0 KHz
  39. Frame rate                               : 31.250 fps (1536 spf)
  40. Compression mode                         : Lossy
  41. Stream size                              : 453 MiB (6%)
  42. Default                                  : Yes
  43. Forced                                   : No

  44. Text
  45. ID                                       : 3
  46. Format                                   : UTF-8
  47. Codec ID                                 : S_TEXT/UTF8
  48. Codec ID/Info                            : UTF-8 Plain Text
  49. Default                                  : Yes
  50. Forced                                   : No
复制代码

复制代码

寻宝假期/掉线寻宝记 Without.A.Paddle.2004.1080p.BluRay.x264-RETREAT 7.95GB-2.png 寻宝假期/掉线寻宝记 Without.A.Paddle.2004.1080p.BluRay.x264-RETREAT 7.95GB-3.png 寻宝假期/掉线寻宝记 Without.A.Paddle.2004.1080p.BluRay.x264-RETREAT 7.95GB-4.png 寻宝假期/掉线寻宝记 Without.A.Paddle.2004.1080p.BluRay.x264-RETREAT 7.95GB-5.png 寻宝假期/掉线寻宝记 Without.A.Paddle.2004.1080p.BluRay.x264-RETREAT 7.95GB-6.png 寻宝假期/掉线寻宝记 Without.A.Paddle.2004.1080p.BluRay.x264-RETREAT 7.95GB-7.png





回复

使用道具 举报

级别:普通观众 Lv.2

UID
8219
注册时间
2018-10-11
最后登录
2018-12-14
听众
2
收听
0
主题
0
蓝光币
28 枚
贡献
0 点
发表于 2018-10-12 14:28:43 | 显示全部楼层
感谢有你,赞一个!!!
回复

使用道具 举报

懒得打字嘛,点击右侧快捷回复 【右侧内容,后台自定义】
您需要登录后才可以回帖 登录 | 立即注册

本版积分规则

QQ|Archiver|手机版|小黑屋|中国高清网 |网站地图

GMT+8, 2018-12-14 21:11 , Processed in 0.195496 second(s), 42 queries .

Powered by HDchina X3.4

Copyright 2017-2018©HDchina.All right reserved

返回顶部 联系我们