你所知道的4K资源这里全部都有 4K电影 | 4K视频 | 4K壁纸 | 4K MV 怎么播放4K视频 | 4K电视演示片

教你玩转4K私人与家庭影院存储 NAS组装 | 黑群辉 家庭/影院Nas论坛

4K家庭影院信号源与视频设备知识 4K蓝光高清播放机 - 那个品牌好? 4K投影机论坛 | 4K电视机论坛

手把手教你搭建属于自己的家庭影院 4K家庭影院案例 | 家庭影院音频 4K家庭影院论坛

查看: 61|回复: 0

[剧情片] 光荣之路/勇闯禁区 Glory.Road.2006.1080p.BluRay.x264-HDMI 10.94GB

[复制链接]

级别:资源管理组

UID
1
注册时间
2017-10-20
最后登录
2018-12-14
听众
0
收听
0
主题
73005
蓝光币
104566 枚
贡献
142813 点
发表于 2018-10-12 01:48:30 | 显示全部楼层 |阅读模式

名誉之路/勇闯禁区 Glory.Road.2006.1080p.BluRay.x264-HDMI 10.94GB-1.jpg
◎译  名 名誉之路/勇闯禁区
◎片  名 Glory Road
◎年  代 2006
◎产  地 美国
◎类  别 剧情/列传/活动
◎语  言 英语
◎上映日期 2006-01-13(美国)
◎IMDb评分  7.2/10 from 38,937 users
◎IMDb链接  http://www.imdb.com/title/tt0385726/
◎豆瓣评分 8.5/10 from 24,744 users
◎豆瓣链接 https://movie.douban.com/subject/1457219/
◎片  长 118 分钟
◎导  演 詹姆斯·加特纳 James Gartner
◎主  演 乔什·卢卡斯 Josh Lucas
      Wes Brown
      德瑞克·卢克 Derek Luke
      强·沃特 Jon Voight
      奥斯汀·尼可斯 Austin Nichols

◎简  介

  1965年是马丁·路德·金与黑豹党、披头士与越战、白人在篮球范畴统治全国的时代。
  高中女子篮球教练唐·哈金斯(Josh Lucas 饰)接到德州西部大学的聘用,虽然供给的报酬不高——一家人只能暂住男生宿舍,董事会的帮助也不敷以招揽高水平运带动,但由于将要执教的是一支NCAA(美国大学同盟锦标赛)第一赛区的球队,哈金斯还是承接下来并顿时同助手展开范围普遍的定位在黑人选手上的球员搜寻。
  教练组连续找到了七位天赋优异的黑人球员,这些球员性情悬殊,各有所长。在履历了一次热血对决以后,黑白球员很快孤芳自赏,投入到哈金斯教练严酷的练习中去。球员偶然的违规行为跟篮球理念的区分让教练与球员们逐步长大着……
  终究迎来了赛季起头的时辰。德州西军队一路凯歌,面临种族主义者的暴力威胁、部分言论的轻视,哈金斯教练决议和他的黑人球员们一路冲向名誉之路的极点……

  1. Video
  2. ID                                       : 1
  3. Format                                   : AVC
  4. Format/Info                              : Advanced Video Codec
  5. Format profile                           : [url=/cdn-cgi/l/email-protection][email protected][/url]
  6. Format settings                          : CABAC / 5 Ref Frames
  7. Format settings, CABAC                   : Yes
  8. Format settings, ReFrames                : 5 frames
  9. Codec ID                                 : V_MPEG4/ISO/AVC
  10. Duration                                 : 1 h 57 min
  11. Bit rate                                 : 12.6 Mb/s
  12. Width                                    : 1 920 pixels
  13. Height                                   : 800 pixels
  14. Display aspect ratio                     : 2.40:1
  15. Frame rate mode                          : Constant
  16. Frame rate                               : 23.976 FPS
  17. Color space                              : YUV
  18. Chroma subsampling                       : 4:2:0
  19. Bit depth                                : 8 bits
  20. Scan type                                : Progressive
  21. Bits/(Pixel*Frame)                       : 0.343
  22. Stream size                              : 10.2 GiB (93%)
  23. Writing library                          : x264 core 67 r1139M 1024283
  24. Encoding settings                        : cabac=1 / ref=5 / deblock=1:0:0 / analyse=0x3:0x133 / me=umh / subme=7 / psy_rd=1.0:0.0 / mixed_ref=1 / me_range=16 / chroma_me=1 / trellis=1 / 8x8dct=1 / cqm=0 / deadzone=21,11 / chroma_qp_offset=-2 / threads=6 / nr=0 / decimate=1 / mbaff=0 / bframes=3 / b_pyramid=1 / b_adapt=1 / b_bias=0 / direct=1 / wpredb=1 / keyint=250 / keyint_min=25 / scenecut=40 / rc=2pass / bitrate=12629 / ratetol=1.0 / qcomp=0.60 / qpmin=10 / qpmax=51 / qpstep=4 / cplxblur=20.0 / qblur=0.5 / ip_ratio=1.40 / pb_ratio=1.30 / aq=1:1.00
  25. Language                                 : English
  26. Default                                  : Yes
  27. Forced                                   : No

  28. Audio
  29. ID                                       : 2
  30. Format                                   : AC-3
  31. Format/Info                              : Audio Coding 3
  32. Commercial name                          : Dolby Digital
  33. Codec ID                                 : A_AC3
  34. Duration                                 : 1 h 57 min
  35. Bit rate mode                            : Constant
  36. Bit rate                                 : 640 kb/s
  37. Channel(s)                               : 6 channels
  38. Channel layout                           : L R C LFE Ls Rs
  39. Sampling rate                            : 48.0 kHz
  40. Frame rate                               : 31.250 FPS (1536 SPF)
  41. Bit depth                                : 16 bits
  42. Compression mode                         : Lossy
  43. Stream size                              : 540 MiB (5%)
  44. Language                                 : English
  45. Service kind                             : Complete Main
  46. Default                                  : Yes
  47. Forced                                   : No

  48. Text #1
  49. ID                                       : 3
  50. Format                                   : UTF-8
  51. Codec ID                                 : S_TEXT/UTF8
  52. Codec ID/Info                            : UTF-8 Plain Text
  53. Language                                 : Spanish
  54. Default                                  : Yes
  55. Forced                                   : No

  56. Text #2
  57. ID                                       : 4
  58. Format                                   : UTF-8
  59. Codec ID                                 : S_TEXT/UTF8
  60. Codec ID/Info                            : UTF-8 Plain Text
  61. Language                                 : French
  62. Default                                  : No
  63. Forced                                   : No
复制代码

复制代码

名誉之路/勇闯禁区 Glory.Road.2006.1080p.BluRay.x264-HDMI 10.94GB-2.png 名誉之路/勇闯禁区 Glory.Road.2006.1080p.BluRay.x264-HDMI 10.94GB-3.png 名誉之路/勇闯禁区 Glory.Road.2006.1080p.BluRay.x264-HDMI 10.94GB-4.png





回复

使用道具 举报

懒得打字嘛,点击右侧快捷回复 【右侧内容,后台自定义】
您需要登录后才可以回帖 登录 | 立即注册

本版积分规则

QQ|Archiver|手机版|小黑屋|中国高清网 |网站地图

GMT+8, 2018-12-14 20:45 , Processed in 0.122422 second(s), 41 queries .

Powered by HDchina X3.4

Copyright 2017-2018©HDchina.All right reserved

返回顶部 联系我们