你所知道的4K资源这里全部都有 4K电影 | 4K视频 | 4K壁纸 | 4K MV 怎么播放4K视频 | 4K电视演示片

教你玩转4K私人与家庭影院存储 NAS组装 | 黑群辉 家庭/影院Nas论坛

4K家庭影院信号源与视频设备知识 4K蓝光高清播放机 - 那个品牌好? 4K投影机论坛 | 4K电视机论坛

手把手教你搭建属于自己的家庭影院 4K家庭影院案例 | 家庭影院音频 4K家庭影院论坛

查看: 50|回复: 1

[犯罪片] 迷幻人生/寻睡者 Light.Sleeper.1992.1080p.BluRay.x264.DTS-FGT 9.39GB

[复制链接]

级别:资源管理组

UID
1
注册时间
2017-10-20
最后登录
2018-12-14
听众
0
收听
0
主题
73005
蓝光币
104550 枚
贡献
142813 点
发表于 2018-10-12 01:48:13 | 显示全部楼层 |阅读模式

迷幻人生/寻睡者 Light.Sleeper.1992.1080p.BluRay.x264.DTS-FGT 9.39GB-1.jpg
◎译  名 迷幻人生/寻睡者/睡不沉的人/失眠者
◎片  名 Light Sleeper
◎年  代 1992
◎产  地 美国
◎类  别 犯罪/剧情
◎语  言 英语
◎上映日期 1992-03-13
◎IMDb评分  6.9/10 from 4,446 users
◎IMDb链接  http://www.imdb.com/title/tt0102307/
◎豆瓣评分 7.7/10 from 68 users
◎豆瓣链接 https://movie.douban.com/subject/1292569/
◎片  长 103 分钟
◎导  演 保罗·施拉德 Paul Schrader
◎主  演 威廉·达福 Willem Dafoe
      苏珊·萨兰登 Susan Sarandon
      达娜·德拉尼 Dana Delany
      大卫·科列侬 David Clennon
      维克多·加博 Victor Garber

◎简  介

  施罗德曾说,“迷幻人生”是一部关于男性孤独者的三部曲中的最初一幕,另两部是出租车司机和美国舞男。作为施罗德最严重和最有用的剧本之一,“迷幻人生”报告了纽约市一位毒贩与中年危机作斗争并被谗谄进毒品有关的谋杀案的故事。Schrader回到曼哈顿的那些粗陋的街道上,是一种明显的郁闷,满盈着一种懊悔和渴望的氛围,这给它一切的人物都增加了奥妙的色彩。威廉达福供给了一个使人疾苦和强大的表演,展现毒贩的动听斗争,重新组合他的生活,并与落空的爱重新联系。

◎获奖情况

  第42届柏林国际电影节  (1992)
  金熊奖 最好影片(提名) 保罗·施拉德

  1. Video
  2. ID                                       : 1
  3. Format                                   : AVC
  4. Format/Info                              : Advanced Video Codec
  5. Format profile                           : [url=/cdn-cgi/l/email-protection][email protected][/url]
  6. Format settings                          : CABAC / 4 Ref Frames
  7. Format settings, CABAC                   : Yes
  8. Format settings, ReFrames                : 4 frames
  9. Codec ID                                 : V_MPEG4/ISO/AVC
  10. Duration                                 : 1 h 43 min
  11. Bit rate                                 : 11.5 Mb/s
  12. Width                                    : 1 920 pixels
  13. Height                                   : 1 040 pixels
  14. Display aspect ratio                     : 1.85:1
  15. Frame rate mode                          : Constant
  16. Frame rate                               : 23.976 (24000/1001) FPS
  17. Color space                              : YUV
  18. Chroma subsampling                       : 4:2:0
  19. Bit depth                                : 8 bits
  20. Scan type                                : Progressive
  21. Bits/(Pixel*Frame)                       : 0.240
  22. Stream size                              : 8.30 GiB (88%)
  23. Title                                    : Light.Sleeper.1992.1080p.BluRay.x264.DTS-FGT
  24. Writing library                          : x264 core 148 r2795M aaa9aa8
  25. Encoding settings                        : cabac=1 / ref=4 / deblock=1:-2:-2 / analyse=0x3:0x113 / me=umh / subme=9 / psy=1 / psy_rd=1.00:0.15 / mixed_ref=1 / me_range=16 / chroma_me=1 / trellis=2 / 8x8dct=1 / cqm=0 / deadzone=21,11 / fast_pskip=1 / chroma_qp_offset=-3 / threads=24 / lookahead_threads=3 / sliced_threads=0 / nr=0 / decimate=1 / interlaced=0 / bluray_compat=0 / constrained_intra=0 / bframes=3 / b_pyramid=2 / b_adapt=1 / b_bias=0 / direct=3 / weightb=1 / open_gop=0 / weightp=2 / keyint=250 / keyint_min=25 / scenecut=40 / intra_refresh=0 / rc_lookahead=50 / rc=2pass / mbtree=1 / bitrate=11500 / ratetol=1.0 / qcomp=0.60 / qpmin=0 / qpmax=69 / qpstep=4 / cplxblur=20.0 / qblur=0.5 / vbv_maxrate=31250 / vbv_bufsize=31250 / nal_hrd=none / filler=0 / ip_ratio=1.40 / aq=1:1.00
  26. Language                                 : English
  27. Default                                  : Yes
  28. Forced                                   : No

  29. Audio
  30. ID                                       : 2
  31. Format                                   : DTS
  32. Format/Info                              : Digital Theater Systems
  33. Codec ID                                 : A_DTS
  34. Duration                                 : 1 h 43 min
  35. Bit rate mode                            : Constant
  36. Bit rate                                 : 1 509 kb/s
  37. Channel(s)                               : 2 channels
  38. Channel layout                           : L R
  39. Sampling rate                            : 48.0 kHz
  40. Frame rate                               : 93.750 FPS (512 SPF)
  41. Bit depth                                : 24 bits
  42. Compression mode                         : Lossy
  43. Stream size                              : 1.09 GiB (12%)
  44. Title                                    : Light.Sleeper.1992.1080p.BluRay.x264.DTS-FGT
  45. Language                                 : English
  46. Default                                  : Yes
  47. Forced                                   : No

  48. Text
  49. ID                                       : 3
  50. Format                                   : UTF-8
  51. Codec ID                                 : S_TEXT/UTF8
  52. Codec ID/Info                            : UTF-8 Plain Text
  53. Duration                                 : 1 h 34 min
  54. Bit rate                                 : 50 b/s
  55. Count of elements                        : 1408
  56. Stream size                              : 34.7 KiB (0%)
  57. Language                                 : English
  58. Default                                  : Yes
  59. Forced                                   : No

  60. Menu
  61. 00:00:00.000                             : en:Chapter 01
  62. 00:00:45.628                             : en:Chapter 02
  63. 00:08:23.377                             : en:Chapter 03
  64. 00:17:21.832                             : en:Chapter 04
  65. 00:23:28.115                             : en:Chapter 05
  66. 00:33:46.941                             : en:Chapter 06
  67. 00:42:13.155                             : en:Chapter 07
  68. 00:53:17.277                             : en:Chapter 08
  69. 00:59:43.663                             : en:Chapter 09
  70. 01:12:20.586                             : en:Chapter 10
  71. 01:20:35.413                             : en:Chapter 11
  72. 01:27:45.635                             : en:Chapter 12
  73. 01:39:49.608                             : en:Chapter 13
复制代码

复制代码

迷幻人生/寻睡者 Light.Sleeper.1992.1080p.BluRay.x264.DTS-FGT 9.39GB-2.png 迷幻人生/寻睡者 Light.Sleeper.1992.1080p.BluRay.x264.DTS-FGT 9.39GB-3.png 迷幻人生/寻睡者 Light.Sleeper.1992.1080p.BluRay.x264.DTS-FGT 9.39GB-4.png





回复

使用道具 举报

级别:群众演员 Lv.3

UID
2410
注册时间
2018-3-22
最后登录
2018-12-5
听众
2
收听
0
主题
0
蓝光币
29 枚
贡献
0 点
QQ
发表于 2018-10-15 19:52:29 | 显示全部楼层
谢谢楼主的分享
回复

使用道具 举报

懒得打字嘛,点击右侧快捷回复 【右侧内容,后台自定义】
您需要登录后才可以回帖 登录 | 立即注册

本版积分规则

QQ|Archiver|手机版|小黑屋|中国高清网 |网站地图

GMT+8, 2018-12-14 19:53 , Processed in 0.121913 second(s), 42 queries .

Powered by HDchina X3.4

Copyright 2017-2018©HDchina.All right reserved

返回顶部 联系我们