你所知道的4K资源这里全部都有 4K电影 | 4K视频 | 4K壁纸 | 4K MV 怎么播放4K视频 | 4K电视演示片

教你玩转4K私人与家庭影院存储 NAS组装 | 黑群辉 家庭/影院Nas论坛

4K家庭影院信号源与视频设备知识 4K蓝光高清播放机 - 那个品牌好? 4K投影机论坛 | 4K电视机论坛

手把手教你搭建属于自己的家庭影院 4K家庭影院案例 | 家庭影院音频 4K家庭影院论坛

查看: 25|回复: 0

[剧情片] 灵魂冲浪人/灵魂冲浪手 Soul.Surfer.2011.1080p.BluRay.X264-AMIABLE 7.65GB

[复制链接]

级别:资源管理组

UID
1
注册时间
2017-10-20
最后登录
2018-10-22
听众
0
收听
0
主题
71065
蓝光币
91714 枚
贡献
139966 点
发表于 2018-10-12 01:47:31 | 显示全部楼层 |阅读模式

灵魂冲游勇/灵魂冲浪手 Soul.Surfer.2011.1080p.BluRay.X264-AMIABLE 7.65GB-1.jpg
◎译  名 灵魂冲游勇/灵魂冲浪手
◎片  名 Soul Surfer
◎年  代 2011
◎产  地 美国
◎类  别 剧情/列传/活动
◎语  言 英语
◎上映日期 2011-04-08(美国)
◎IMDb评分  7.1/10 from 40,407 users
◎IMDb链接  http://www.imdb.com/title/tt1596346/
◎豆瓣评分 8.2/10 from 11,884 users
◎豆瓣链接 https://movie.douban.com/subject/4301274/
◎片  长 106分钟
◎导  演 肖恩·麦克纳马拉 Sean McNamara
◎主  演 安娜索菲亚·罗伯 AnnaSophia Robb
      海伦·亨特 Helen Hunt
      丹尼斯·奎德 Dennis Quaid
      嘉丽·安德伍德 Carrie Underwood
      凯文·索伯 Kevin Sorbo
      罗斯·托马斯 Ross Thomas
      克里斯·布罗楚 Chris Brochu
      洛琳·尼科尔森 Lorraine Nicholson
      杰瑞米·桑普特 Jeremy Sumpter
      索尼娅·巴摩斯 Sonya Balmores
      格雷格·T·尼尔森 Craig T. Nelson
      Cody Gomes
      布兰斯康比·里奇蒙德 Branscombe Richmond
      Titus Kinimaka
      John Philbin

◎简  介

  影片只用了40天便拍摄完成,全片利用35mm的胶片摄制。
  影片改编自2004年出书的列传文学《灵魂冲浪:一个关于信心、家庭和重新站上冲浪板的实在故事》。
  长大在夏威夷考艾岛的贝瑟尼·汉密尔顿(安娜索菲亚·罗伯 AnnaSophia Robb 饰)是一个天生的冲浪天赋,从小就展现出了在冲浪方面的过人的才华。她与好友埃兰娜(洛琳·尼科尔森 Lorraine Nicholson 饰)一路加入了全国的冲浪角逐,而且获得了不俗的成就。但在她13岁那一年的一个早晨,在她在冲浪的时辰一条14英尺长的虎鲨攻击了她,咬下了她的左臂。一瞬间,她的生活和未来都被冲垮了。就在一切人都在预备为她另谋前途的时辰,她决议用自己残缺的身材重返冲浪的赛场。在好朋友汤姆、切瑞和萨拉的帮助下,她用自己惊人的毅力重新起立,站在了冲浪板和浪头之上。

◎获奖情况

  第13届美国青少年挑选奖  (2011)
  最好剧情片(提名)
  最好剧情片女演员(提名) 安娜索菲亚·罗伯
  • Video
  • ID                                       : 1
  • Format                                   : AVC
  • Format/Info                              : Advanced Video Codec
  • Format profile                           : [email protected]
  • Format settings                          : CABAC / 5 Ref Frames
  • Format settings, CABAC                   : Yes
  • Format settings, ReFrames                : 5 frames
  • Codec ID                                 : V_MPEG4/ISO/AVC
  • Duration                                 : 1 h 46 min
  • Bit rate                                 : 8 780 kb/s
  • Width                                    : 1 920 pixels
  • Height                                   : 800 pixels
  • Display aspect ratio                     : 2.40:1
  • Frame rate mode                          : Constant
  • Frame rate                               : 23.976 (24000/1001) FPS
  • Color space                              : YUV
  • Chroma subsampling                       : 4:2:0
  • Bit depth                                : 8 bits
  • Scan type                                : Progressive
  • Bits/(Pixel*Frame)                       : 0.238
  • Stream size                              : 6.38 GiB (83%)
  • Writing library                          : x264 core 116 r2019 9cc407d
  • Encoding settings                        : cabac=1 / ref=5 / deblock=1:0:0 / analyse=0x3:0x113 / me=umh / subme=8 / psy=1 / psy_rd=1.00:0.00 / mixed_ref=1 / me_range=16 / chroma_me=1 / trellis=1 / 8x8dct=1 / cqm=0 / deadzone=21,11 / fast_pskip=1 / chroma_qp_offset=-2 / threads=12 / sliced_threads=0 / nr=0 / decimate=1 / interlaced=0 / bluray_compat=0 / constrained_intra=0 / bframes=3 / b_pyramid=2 / b_adapt=2 / b_bias=0 / direct=3 / weightb=1 / open_gop=0 / weightp=2 / keyint=240 / keyint_min=24 / scenecut=40 / intra_refresh=0 / rc_lookahead=50 / rc=2pass / mbtree=1 / bitrate=8780 / ratetol=1.0 / qcomp=0.60 / qpmin=0 / qpmax=69 / qpstep=4 / cplxblur=20.0 / qblur=0.5 / ip_ratio=1.40 / aq=1:1.00
  • Language                                 : English
  • Default                                  : Yes
  • Forced                                   : No
  • Audio
  • ID                                       : 2
  • Format                                   : DTS
  • Format/Info                              : Digital Theater Systems
  • Codec ID                                 : A_DTS
  • Duration                                 : 1 h 46 min
  • Bit rate mode                            : Constant
  • Bit rate                                 : 1 509 kb/s
  • Channel(s)                               : 6 channels
  • Channel layout                           : C L R Ls Rs LFE
  • Sampling rate                            : 48.0 kHz
  • Frame rate                               : 93.750 FPS (512 SPF)
  • Bit depth                                : 24 bits
  • Compression mode                         : Lossy
  • Stream size                              : 1.12 GiB (15%)
  • Language                                 : English
  • Default                                  : Yes
  • Forced                                   : No
  • Text
  • ID                                       : 3
  • Format                                   : UTF-8
  • Codec ID                                 : S_TEXT/UTF8
  • Codec ID/Info                            : UTF-8 Plain Text
  • Language                                 : English
  • Default                                  : No
  • Forced                                   : No
  • Menu
  • 00:00:00.000                             : en:00:00:00.000
  • 00:07:22.484                             : en:00:07:22.484
  • 00:12:47.266                             : en:00:12:47.266
  • 00:18:21.600                             : en:00:18:21.600
  • 00:25:32.823                             : en:00:25:32.823
  • 00:32:06.174                             : en:00:32:06.174
  • 00:36:42.992                             : en:00:36:42.992
  • 00:42:21.789                             : en:00:42:21.789
  • 00:47:09.243                             : en:00:47:09.243
  • 00:54:02.990                             : en:00:54:02.990
  • 00:57:30.447                             : en:00:57:30.447
  • 01:05:23.253                             : en:01:05:23.253
  • 01:10:24.387                             : en:01:10:24.387
  • 01:23:11.403                             : en:01:23:11.403
  • 01:30:30.175                             : en:01:30:30.175
  • 01:36:11.724                             : en:01:36:11.724

复制代码

灵魂冲游勇/灵魂冲浪手 Soul.Surfer.2011.1080p.BluRay.X264-AMIABLE 7.65GB-2.png 灵魂冲游勇/灵魂冲浪手 Soul.Surfer.2011.1080p.BluRay.X264-AMIABLE 7.65GB-3.png 灵魂冲游勇/灵魂冲浪手 Soul.Surfer.2011.1080p.BluRay.X264-AMIABLE 7.65GB-4.png





Soul.Surfer.2011.1080p.BluRay.X264-AMIABLE.torrent (77.01 KB, 下载次数: 0, 售价: 2 枚蓝光币)
回复

使用道具 举报

您需要登录后才可以回帖 登录 | 立即注册

本版积分规则

QQ|Archiver|手机版|小黑屋|HDchina论坛 |网站地图

GMT+8, 2018-10-23 03:19 , Processed in 0.186161 second(s), 42 queries .

Powered by Discuz! X3.4

© 2001-2017 Comsenz Inc.

返回顶部 联系我们