你所知道的4K资源这里全部都有 4K电影 | 4K视频 | 4K壁纸 | 4K MV 怎么播放4K视频 | 4K电视演示片

教你玩转4K私人与家庭影院存储 NAS组装 | 黑群辉 家庭/影院Nas论坛

4K家庭影院信号源与视频设备知识 4K蓝光高清播放机 - 那个品牌好? 4K投影机论坛 | 4K电视机论坛

手把手教你搭建属于自己的家庭影院 4K家庭影院案例 | 家庭影院音频 4K家庭影院论坛

查看: 48|回复: 0

[恐怖片] 阴风阵阵/坐立不安 Suspiria.1977.REMASTERED.ITALIAN.1080p.BluRay.x264-CREEPSHOW 9.89GB

[复制链接]

级别:资源管理组

UID
1
注册时间
2017-10-20
最后登录
2018-12-14
听众
0
收听
0
主题
73005
蓝光币
104556 枚
贡献
142813 点
发表于 2018-10-12 01:47:14 | 显示全部楼层 |阅读模式

阴风阵阵/如坐针毡 Suspiria.1977.REMASTERED.ITALIAN.1080p.BluRay.x264-CREEPSHOW 9.89GB-1.jpg
◎译  名 阴风阵阵/如坐针毡
◎片  名 Suspiria
◎年  代 1977
◎产  地 意大利
◎类  别 可骇
◎语  言 意大利语/俄语/英语/德语/拉丁语
◎上映日期 1977-02-01
◎IMDb评分  7.5/10 from 59,208 users
◎IMDb链接  http://www.imdb.com/title/tt0076786/
◎豆瓣评分 7.3/10 from 7,917 users
◎豆瓣链接 https://movie.douban.com/subject/1296332/
◎片  长 98分钟/101分钟(修复版)
◎导  演 达里奥·阿基多 Dario Argento
◎主  演 杰西卡·哈珀 Jessica Harper
      斯蒂芬妮娅·卡西尼 Stefania Casini
      弗拉维奥·布奇 Flavio Bucci
      米盖尔·波斯 Miguel Bosé
      芭芭拉·马尼奥尔菲 Barbara Magnolfi
      苏珊娜·亚维科利 Susanna Javicoli
      埃娃·阿克森 Eva Axén
      鲁道夫·申德勒 Rudolf Schündler
      乌多·奇尔 Udo Kier
      阿莉达·瓦莉 Alida Valli
      琼·贝内特 Joan Bennett
      玛格丽特·霍洛维茨 Margherita Horowitz
      Jacopo Mariani
      Fulvio Mingozzi
      弗兰卡·斯坎列蒂 Franca Scagnetti

◎简  介

  在一场瓢泼大雨当中,羸弱的女子苏西(杰西卡·哈珀 Jessica Harper 饰)孤身一人来到德国,前往那边的芭蕾舞黉舍进修舞蹈。刚刚到达的苏西看到一位女子从黉舍的大门里狂奔而出,口中念念有词,随后消失在了雨幕当中,让苏西没有想到的是,第二天,她便听闻了这位女子的死讯。
  很快,苏西便发现这所黉舍里的同学并不如她设想的那样和睦,她的室友更是一个利欲熏心的女人,而苏西结交到的唯逐一个朋友,居然同先前死去的女生是好友。在她的口中,苏西听说了黉舍里女巫作怪诅咒横行的传言,而接连出现的诡异现象亦让苏西渐渐发觉到,在这所阴森的黉舍中,隐藏着不成告人的奥秘。

  1. Video
  2. ID                                       : 1
  3. Format                                   : AVC
  4. Format/Info                              : Advanced Video Codec
  5. Format profile                           : [url=/cdn-cgi/l/email-protection][email protected][/url]
  6. Format settings                          : CABAC / 5 Ref Frames
  7. Format settings, CABAC                   : Yes
  8. Format settings, ReFrames                : 5 frames
  9. Codec ID                                 : V_MPEG4/ISO/AVC
  10. Duration                                 : 1 h 39 min
  11. Bit rate                                 : 12.8 Mb/s
  12. Width                                    : 1 920 pixels
  13. Height                                   : 816 pixels
  14. Display aspect ratio                     : 2.35:1
  15. Frame rate mode                          : Constant
  16. Frame rate                               : 24.000 FPS
  17. Color space                              : YUV
  18. Chroma subsampling                       : 4:2:0
  19. Bit depth                                : 8 bits
  20. Scan type                                : Progressive
  21. Bits/(Pixel*Frame)                       : 0.340
  22. Stream size                              : 8.84 GiB (89%)
  23. Writing library                          : x264 core 148 r2744 b97ae06
  24. Encoding settings                        : cabac=1 / ref=5 / deblock=1:-2:-2 / analyse=0x3:0x133 / me=umh / subme=9 / psy=1 / psy_rd=1.00:0.00 / mixed_ref=1 / me_range=16 / chroma_me=1 / trellis=1 / 8x8dct=1 / cqm=0 / deadzone=21,11 / fast_pskip=0 / chroma_qp_offset=-2 / threads=6 / lookahead_threads=1 / sliced_threads=0 / nr=0 / decimate=1 / interlaced=0 / bluray_compat=0 / constrained_intra=0 / bframes=3 / b_pyramid=2 / b_adapt=1 / b_bias=0 / direct=3 / weightb=1 / open_gop=0 / weightp=2 / keyint=240 / keyint_min=24 / scenecut=40 / intra_refresh=0 / rc_lookahead=50 / rc=2pass / mbtree=1 / bitrate=12778 / ratetol=1.0 / qcomp=0.60 / qpmin=0 / qpmax=69 / qpstep=4 / cplxblur=20.0 / qblur=0.5 / vbv_maxrate=62500 / vbv_bufsize=78125 / nal_hrd=none / filler=0 / ip_ratio=1.40 / aq=1:0.70
  25. Default                                  : Yes
  26. Forced                                   : No

  27. Audio
  28. ID                                       : 2
  29. Format                                   : DTS
  30. Format/Info                              : Digital Theater Systems
  31. Codec ID                                 : A_DTS
  32. Duration                                 : 1 h 39 min
  33. Bit rate mode                            : Constant
  34. Bit rate                                 : 1 509 kb/s
  35. Channel(s)                               : 6 channels
  36. Channel layout                           : C L R Ls Rs LFE
  37. Sampling rate                            : 48.0 kHz
  38. Frame rate                               : 93.750 FPS (512 SPF)
  39. Bit depth                                : 24 bits
  40. Compression mode                         : Lossy
  41. Stream size                              : 1.04 GiB (11%)
  42. Language                                 : Italian
  43. Default                                  : Yes
  44. Forced                                   : No

  45. Text #1
  46. ID                                       : 3
  47. Format                                   : UTF-8
  48. Codec ID                                 : S_TEXT/UTF8
  49. Codec ID/Info                            : UTF-8 Plain Text
  50. Duration                                 : 1 h 33 min
  51. Bit rate                                 : 35 b/s
  52. Count of elements                        : 603
  53. Stream size                              : 24.3 KiB (0%)
  54. Language                                 : English
  55. Default                                  : Yes
  56. Forced                                   : Yes

  57. Text #2
  58. ID                                       : 4
  59. Format                                   : UTF-8
  60. Codec ID                                 : S_TEXT/UTF8
  61. Codec ID/Info                            : UTF-8 Plain Text
  62. Duration                                 : 1 h 33 min
  63. Bit rate                                 : 34 b/s
  64. Count of elements                        : 607
  65. Stream size                              : 23.4 KiB (0%)
  66. Language                                 : Italian
  67. Default                                  : No
  68. Forced                                   : No

  69. Menu
  70. 00:00:00.000                             : en:00:00:00.000
  71. 00:08:10.625                             : en:00:08:10.625
  72. 00:14:32.208                             : en:00:14:32.208
  73. 00:24:42.417                             : en:00:24:42.417
  74. 00:32:15.000                             : en:00:32:15.000
  75. 00:43:12.000                             : en:00:43:12.000
  76. 00:49:29.000                             : en:00:49:29.000
  77. 00:57:43.417                             : en:00:57:43.417
  78. 01:09:02.208                             : en:01:09:02.208
  79. 01:16:44.417                             : en:01:16:44.417
  80. 01:22:55.000                             : en:01:22:55.000
  81. 01:32:12.208                             : en:01:32:12.208
复制代码

复制代码

阴风阵阵/如坐针毡 Suspiria.1977.REMASTERED.ITALIAN.1080p.BluRay.x264-CREEPSHOW 9.89GB-2.png 阴风阵阵/如坐针毡 Suspiria.1977.REMASTERED.ITALIAN.1080p.BluRay.x264-CREEPSHOW 9.89GB-3.png 阴风阵阵/如坐针毡 Suspiria.1977.REMASTERED.ITALIAN.1080p.BluRay.x264-CREEPSHOW 9.89GB-4.png





回复

使用道具 举报

懒得打字嘛,点击右侧快捷回复 【右侧内容,后台自定义】
您需要登录后才可以回帖 登录 | 立即注册

本版积分规则

QQ|Archiver|手机版|小黑屋|中国高清网 |网站地图

GMT+8, 2018-12-14 20:18 , Processed in 0.138637 second(s), 41 queries .

Powered by HDchina X3.4

Copyright 2017-2018©HDchina.All right reserved

返回顶部 联系我们