你所知道的4K资源这里全部都有 4K电影 | 4K视频 | 4K壁纸 | 4K MV 怎么播放4K视频 | 4K电视演示片

教你玩转4K私人与家庭影院存储 NAS组装 | 黑群辉 家庭/影院Nas论坛

4K家庭影院信号源与视频设备知识 4K蓝光高清播放机 - 那个品牌好? 4K投影机论坛 | 4K电视机论坛

手把手教你搭建属于自己的家庭影院 4K家庭影院案例 | 家庭影院音频 4K家庭影院论坛

查看: 34|回复: 1

[喜剧片] 错试云雨情 Take.a.Girl.Like.You.1970.1080p.BluRay.x264.DTS-FGT 8.93GB

[复制链接]

级别:资源管理组

UID
1
注册时间
2017-10-20
最后登录
2018-10-22
听众
0
收听
0
主题
71065
蓝光币
91714 枚
贡献
139966 点
发表于 2018-10-12 01:46:28 | 显示全部楼层 |阅读模式

错试云雨情 Take.a.Girl.Like.You.1970.1080p.BluRay.x264.DTS-FGT 8.93GB-1.jpg
◎译  名 错试云雨情
◎片  名 Take a Girl Like You
◎年  代 1970
◎产  地 英国
◎类  别 笑剧/剧情/恋爱
◎语  言 英语
◎上映日期 1970
◎IMDb评分  7.3/10 from 456 users
◎IMDb链接  http://www.imdb.com/title/tt0066436/
◎豆瓣评分 /10 from 0 users
◎豆瓣链接 https://movie.douban.com/subject/5055949/
◎片  长 101 分钟
◎导  演 乔纳森·米勒 Jonathan Miller
◎主  演 海莉·米尔斯 Hayley Mills
      奥列佛·里德 Oliver Reed

◎简  介

  None
  • Video
  • ID                                       : 1
  • Format                                   : AVC
  • Format/Info                              : Advanced Video Codec
  • Format profile                           : [email protected]
  • Format settings                          : CABAC / 4 Ref Frames
  • Format settings, CABAC                   : Yes
  • Format settings, ReFrames                : 4 frames
  • Codec ID                                 : V_MPEG4/ISO/AVC
  • Duration                                 : 1 h 38 min
  • Bit rate                                 : 11.5 Mb/s
  • Width                                    : 1 920 pixels
  • Height                                   : 1 040 pixels
  • Display aspect ratio                     : 1.85:1
  • Frame rate mode                          : Constant
  • Frame rate                               : 23.976 (24000/1001) FPS
  • Color space                              : YUV
  • Chroma subsampling                       : 4:2:0
  • Bit depth                                : 8 bits
  • Scan type                                : Progressive
  • Bits/(Pixel*Frame)                       : 0.240
  • Stream size                              : 7.89 GiB (88%)
  • Title                                    : Take.a.Girl.Like.You.1970.1080p.BluRay.x264.DTS-FGT
  • Writing library                          : x264 core 148 r2795M aaa9aa8
  • Encoding settings                        : cabac=1 / ref=4 / deblock=1:-2:-2 / analyse=0x3:0x113 / me=umh / subme=9 / psy=1 / psy_rd=1.00:0.15 / mixed_ref=1 / me_range=16 / chroma_me=1 / trellis=2 / 8x8dct=1 / cqm=0 / deadzone=21,11 / fast_pskip=1 / chroma_qp_offset=-3 / threads=24 / lookahead_threads=3 / sliced_threads=0 / nr=0 / decimate=1 / interlaced=0 / bluray_compat=0 / constrained_intra=0 / bframes=3 / b_pyramid=2 / b_adapt=1 / b_bias=0 / direct=3 / weightb=1 / open_gop=0 / weightp=2 / keyint=250 / keyint_min=25 / scenecut=40 / intra_refresh=0 / rc_lookahead=50 / rc=2pass / mbtree=1 / bitrate=11500 / ratetol=1.0 / qcomp=0.60 / qpmin=0 / qpmax=69 / qpstep=4 / cplxblur=20.0 / qblur=0.5 / vbv_maxrate=31250 / vbv_bufsize=31250 / nal_hrd=none / filler=0 / ip_ratio=1.40 / aq=1:1.00
  • Language                                 : English
  • Default                                  : Yes
  • Forced                                   : No
  • Audio
  • ID                                       : 2
  • Format                                   : DTS
  • Format/Info                              : Digital Theater Systems
  • Codec ID                                 : A_DTS
  • Duration                                 : 1 h 38 min
  • Bit rate mode                            : Constant
  • Bit rate                                 : 1 509 kb/s
  • Channel(s)                               : 2 channels
  • Channel layout                           : L R
  • Sampling rate                            : 48.0 kHz
  • Frame rate                               : 93.750 FPS (512 SPF)
  • Bit depth                                : 24 bits
  • Compression mode                         : Lossy
  • Stream size                              : 1.04 GiB (12%)
  • Title                                    : Take.a.Girl.Like.You.1970.1080p.BluRay.x264.DTS-FGT
  • Language                                 : English
  • Default                                  : Yes
  • Forced                                   : No
  • Text
  • ID                                       : 3
  • Format                                   : UTF-8
  • Codec ID                                 : S_TEXT/UTF8
  • Codec ID/Info                            : UTF-8 Plain Text
  • Duration                                 : 1 h 34 min
  • Bit rate                                 : 61 b/s
  • Count of elements                        : 1312
  • Stream size                              : 42.6 KiB (0%)
  • Language                                 : English
  • Default                                  : Yes
  • Forced                                   : No
  • Menu
  • 00:00:00.000                             : en:Chapter 01
  • 00:05:48.639                             : en:Chapter 02
  • 00:09:54.510                             : en:Chapter 03
  • 00:14:08.305                             : en:Chapter 04
  • 00:18:05.626                             : en:Chapter 05
  • 00:21:12.896                             : en:Chapter 06
  • 00:24:20.625                             : en:Chapter 07
  • 00:28:45.348                             : en:Chapter 08
  • 00:32:08.343                             : en:Chapter 09
  • 00:36:35.193                             : en:Chapter 10
  • 00:39:05.926                             : en:Chapter 11
  • 00:42:51.610                             : en:Chapter 12
  • 00:46:43.383                             : en:Chapter 13
  • 00:52:21.179                             : en:Chapter 14
  • 00:57:38.455                             : en:Chapter 15
  • 01:01:42.490                             : en:Chapter 16
  • 01:06:21.185                             : en:Chapter 17
  • 01:09:47.391                             : en:Chapter 18
  • 01:15:18.222                             : en:Chapter 19
  • 01:18:31.164                             : en:Chapter 20
  • 01:21:59.539                             : en:Chapter 21
  • 01:26:20.341                             : en:Chapter 22
  • 01:29:53.221                             : en:Chapter 23
  • 01:33:41.991                             : en:Chapter 24

复制代码

错试云雨情 Take.a.Girl.Like.You.1970.1080p.BluRay.x264.DTS-FGT 8.93GB-2.png 错试云雨情 Take.a.Girl.Like.You.1970.1080p.BluRay.x264.DTS-FGT 8.93GB-3.png 错试云雨情 Take.a.Girl.Like.You.1970.1080p.BluRay.x264.DTS-FGT 8.93GB-4.png





Take.a.Girl.Like.You.1970.1080p.BluRay.x264.DTS-FGT.torrent (89.8 KB, 下载次数: 0, 售价: 2 枚蓝光币)
回复

使用道具 举报

级别:普通观众 Lv.2

UID
8219
注册时间
2018-10-11
最后登录
2018-10-18
听众
0
收听
0
主题
0
蓝光币
14 枚
贡献
0 点
发表于 2018-10-12 14:30:27 | 显示全部楼层
还是老片耐看!!!
回复

使用道具 举报

您需要登录后才可以回帖 登录 | 立即注册

本版积分规则

QQ|Archiver|手机版|小黑屋|HDchina论坛 |网站地图

GMT+8, 2018-10-23 03:42 , Processed in 0.194268 second(s), 41 queries .

Powered by Discuz! X3.4

© 2001-2017 Comsenz Inc.

返回顶部 联系我们