你所知道的4K资源这里全部都有 4K电影 | 4K视频 | 4K壁纸 | 4K MV 怎么播放4K视频 | 4K电视演示片

教你玩转4K私人与家庭影院存储 NAS组装 | 黑群辉 家庭/影院Nas论坛

4K家庭影院信号源与视频设备知识 4K蓝光高清播放机 - 那个品牌好? 4K投影机论坛 | 4K电视机论坛

手把手教你搭建属于自己的家庭影院 4K家庭影院案例 | 家庭影院音频 4K家庭影院论坛

查看: 68|回复: 1

[喜剧片] 错试云雨情 Take.a.Girl.Like.You.1970.1080p.BluRay.x264.DTS-FGT 8.93GB

[复制链接]

级别:资源管理组

UID
1
注册时间
2017-10-20
最后登录
2018-12-14
听众
0
收听
0
主题
73005
蓝光币
104574 枚
贡献
142813 点
发表于 2018-10-12 01:46:28 | 显示全部楼层 |阅读模式

错试云雨情 Take.a.Girl.Like.You.1970.1080p.BluRay.x264.DTS-FGT 8.93GB-1.jpg
◎译  名 错试云雨情
◎片  名 Take a Girl Like You
◎年  代 1970
◎产  地 英国
◎类  别 笑剧/剧情/恋爱
◎语  言 英语
◎上映日期 1970
◎IMDb评分  7.3/10 from 456 users
◎IMDb链接  http://www.imdb.com/title/tt0066436/
◎豆瓣评分 /10 from 0 users
◎豆瓣链接 https://movie.douban.com/subject/5055949/
◎片  长 101 分钟
◎导  演 乔纳森·米勒 Jonathan Miller
◎主  演 海莉·米尔斯 Hayley Mills
      奥列佛·里德 Oliver Reed

◎简  介

  None

  1. Video
  2. ID                                       : 1
  3. Format                                   : AVC
  4. Format/Info                              : Advanced Video Codec
  5. Format profile                           : [url=/cdn-cgi/l/email-protection][email protected][/url]
  6. Format settings                          : CABAC / 4 Ref Frames
  7. Format settings, CABAC                   : Yes
  8. Format settings, ReFrames                : 4 frames
  9. Codec ID                                 : V_MPEG4/ISO/AVC
  10. Duration                                 : 1 h 38 min
  11. Bit rate                                 : 11.5 Mb/s
  12. Width                                    : 1 920 pixels
  13. Height                                   : 1 040 pixels
  14. Display aspect ratio                     : 1.85:1
  15. Frame rate mode                          : Constant
  16. Frame rate                               : 23.976 (24000/1001) FPS
  17. Color space                              : YUV
  18. Chroma subsampling                       : 4:2:0
  19. Bit depth                                : 8 bits
  20. Scan type                                : Progressive
  21. Bits/(Pixel*Frame)                       : 0.240
  22. Stream size                              : 7.89 GiB (88%)
  23. Title                                    : Take.a.Girl.Like.You.1970.1080p.BluRay.x264.DTS-FGT
  24. Writing library                          : x264 core 148 r2795M aaa9aa8
  25. Encoding settings                        : cabac=1 / ref=4 / deblock=1:-2:-2 / analyse=0x3:0x113 / me=umh / subme=9 / psy=1 / psy_rd=1.00:0.15 / mixed_ref=1 / me_range=16 / chroma_me=1 / trellis=2 / 8x8dct=1 / cqm=0 / deadzone=21,11 / fast_pskip=1 / chroma_qp_offset=-3 / threads=24 / lookahead_threads=3 / sliced_threads=0 / nr=0 / decimate=1 / interlaced=0 / bluray_compat=0 / constrained_intra=0 / bframes=3 / b_pyramid=2 / b_adapt=1 / b_bias=0 / direct=3 / weightb=1 / open_gop=0 / weightp=2 / keyint=250 / keyint_min=25 / scenecut=40 / intra_refresh=0 / rc_lookahead=50 / rc=2pass / mbtree=1 / bitrate=11500 / ratetol=1.0 / qcomp=0.60 / qpmin=0 / qpmax=69 / qpstep=4 / cplxblur=20.0 / qblur=0.5 / vbv_maxrate=31250 / vbv_bufsize=31250 / nal_hrd=none / filler=0 / ip_ratio=1.40 / aq=1:1.00
  26. Language                                 : English
  27. Default                                  : Yes
  28. Forced                                   : No

  29. Audio
  30. ID                                       : 2
  31. Format                                   : DTS
  32. Format/Info                              : Digital Theater Systems
  33. Codec ID                                 : A_DTS
  34. Duration                                 : 1 h 38 min
  35. Bit rate mode                            : Constant
  36. Bit rate                                 : 1 509 kb/s
  37. Channel(s)                               : 2 channels
  38. Channel layout                           : L R
  39. Sampling rate                            : 48.0 kHz
  40. Frame rate                               : 93.750 FPS (512 SPF)
  41. Bit depth                                : 24 bits
  42. Compression mode                         : Lossy
  43. Stream size                              : 1.04 GiB (12%)
  44. Title                                    : Take.a.Girl.Like.You.1970.1080p.BluRay.x264.DTS-FGT
  45. Language                                 : English
  46. Default                                  : Yes
  47. Forced                                   : No

  48. Text
  49. ID                                       : 3
  50. Format                                   : UTF-8
  51. Codec ID                                 : S_TEXT/UTF8
  52. Codec ID/Info                            : UTF-8 Plain Text
  53. Duration                                 : 1 h 34 min
  54. Bit rate                                 : 61 b/s
  55. Count of elements                        : 1312
  56. Stream size                              : 42.6 KiB (0%)
  57. Language                                 : English
  58. Default                                  : Yes
  59. Forced                                   : No

  60. Menu
  61. 00:00:00.000                             : en:Chapter 01
  62. 00:05:48.639                             : en:Chapter 02
  63. 00:09:54.510                             : en:Chapter 03
  64. 00:14:08.305                             : en:Chapter 04
  65. 00:18:05.626                             : en:Chapter 05
  66. 00:21:12.896                             : en:Chapter 06
  67. 00:24:20.625                             : en:Chapter 07
  68. 00:28:45.348                             : en:Chapter 08
  69. 00:32:08.343                             : en:Chapter 09
  70. 00:36:35.193                             : en:Chapter 10
  71. 00:39:05.926                             : en:Chapter 11
  72. 00:42:51.610                             : en:Chapter 12
  73. 00:46:43.383                             : en:Chapter 13
  74. 00:52:21.179                             : en:Chapter 14
  75. 00:57:38.455                             : en:Chapter 15
  76. 01:01:42.490                             : en:Chapter 16
  77. 01:06:21.185                             : en:Chapter 17
  78. 01:09:47.391                             : en:Chapter 18
  79. 01:15:18.222                             : en:Chapter 19
  80. 01:18:31.164                             : en:Chapter 20
  81. 01:21:59.539                             : en:Chapter 21
  82. 01:26:20.341                             : en:Chapter 22
  83. 01:29:53.221                             : en:Chapter 23
  84. 01:33:41.991                             : en:Chapter 24
复制代码

复制代码

错试云雨情 Take.a.Girl.Like.You.1970.1080p.BluRay.x264.DTS-FGT 8.93GB-2.png 错试云雨情 Take.a.Girl.Like.You.1970.1080p.BluRay.x264.DTS-FGT 8.93GB-3.png 错试云雨情 Take.a.Girl.Like.You.1970.1080p.BluRay.x264.DTS-FGT 8.93GB-4.png





回复

使用道具 举报

级别:普通观众 Lv.2

UID
8219
注册时间
2018-10-11
最后登录
2018-12-14
听众
2
收听
0
主题
0
蓝光币
28 枚
贡献
0 点
发表于 2018-10-12 14:30:27 | 显示全部楼层
还是老片耐看!!!
回复

使用道具 举报

懒得打字嘛,点击右侧快捷回复 【右侧内容,后台自定义】
您需要登录后才可以回帖 登录 | 立即注册

本版积分规则

QQ|Archiver|手机版|小黑屋|中国高清网 |网站地图

GMT+8, 2018-12-14 21:36 , Processed in 0.185803 second(s), 42 queries .

Powered by HDchina X3.4

Copyright 2017-2018©HDchina.All right reserved

返回顶部 联系我们