你所知道的4K资源这里全部都有 4K电影 | 4K视频 | 4K壁纸 | 4K MV 怎么播放4K视频 | 4K电视演示片

教你玩转4K私人与家庭影院存储 NAS组装 | 黑群辉 家庭/影院Nas论坛

4K家庭影院信号源与视频设备知识 4K蓝光高清播放机 - 那个品牌好? 4K投影机论坛 | 4K电视机论坛

手把手教你搭建属于自己的家庭影院 4K家庭影院案例 | 家庭影院音频 4K家庭影院论坛

查看: 63|回复: 0

[冒险片] 阿基尔上帝的愤怒/天谴 Aguirre.the.Wrath.of.God.1972.1080p.BluRay.x264-PHOBOS 8.86GB

[复制链接]

级别:资源管理组

UID
1
注册时间
2017-10-20
最后登录
2018-12-14
听众
0
收听
0
主题
73005
蓝光币
104550 枚
贡献
142813 点
发表于 2018-10-12 01:45:25 | 显示全部楼层 |阅读模式

阿基尔天主的愤慨/天谴 Aguirre.the.Wrath.of.God.1972.1080p.BluRay.x264-PHOBOS 8.86GB-1.jpg
◎译  名 阿基尔,天主的愤慨/天谴/阿奎尔,天主的愤慨/阿吉尔,天主的愤慨/三侠屠龙
◎片  名 Aguirre, der Zorn Gottes
◎年  代 1972
◎产  地 西德
◎类  别 冒险/列传/剧情/历史
◎语  言 德语
◎上映日期 1972-12-29
◎IMDb评分  8.0/10 from 44,778 users
◎IMDb链接  http://www.imdb.com/title/tt0068182/
◎豆瓣评分 8.2/10 from 3,651 users
◎豆瓣链接 https://movie.douban.com/subject/1306002/
◎片  长 93 分钟
◎导  演 沃纳·赫尔佐格 Werner Herzog
◎主  演 克劳斯·金斯基 Klaus Kinski
      彼得·贝尔林 Peter Berling
      海伦娜·罗霍 Helena Rojo
      鲁伊·古雷拉 Ruy Guerra
      丹尼尔·阿德斯 Daniel Ades

◎简  介

  16世纪在印加帝国扑灭后,一支西班牙征服者组成探险队,从秘鲁山脉南下至亚马逊河寻觅黄金和财富。他们很快碰到了麻烦和危险,而阿奎尔,这个粗鲁并贪心的人成为了他们的魁首。他可以率领他们获得财富,还是将他们领向灭亡?在此进程中,对西班牙的虔诚承受着考验,对权利的争取也相继发生……

  1. Video
  2. ID                                       : 1
  3. Format                                   : AVC
  4. Format/Info                              : Advanced Video Codec
  5. Format profile                           : [url=/cdn-cgi/l/email-protection][email protected][/url]
  6. Format settings, CABAC                   : Yes
  7. Format settings, ReFrames                : 4 frames
  8. Codec ID                                 : V_MPEG4/ISO/AVC
  9. Duration                                 : 1h 34mn
  10. Bit rate                                 : 11.1 Mbps
  11. Width                                    : 1 440 pixels
  12. Height                                   : 1 080 pixels
  13. Display aspect ratio                     : 4:3
  14. Frame rate mode                          : Constant
  15. Frame rate                               : 24.000 fps
  16. Color space                              : YUV
  17. Chroma subsampling                       : 4:2:0
  18. Bit depth                                : 8 bits
  19. Scan type                                : Progressive
  20. Bits/(Pixel*Frame)                       : 0.298
  21. Stream size                              : 7.15 GiB (82%)
  22. Writing library                          : x264 core 142 r2479M dd79a61
  23. Encoding settings                        : cabac=1 / ref=4 / deblock=1:0:0 / analyse=0x3:0x133 / me=umh / subme=10 / psy=1 / psy_rd=1.00:0.00 / mixed_ref=1 / me_range=24 / chroma_me=1 / trellis=2 / 8x8dct=1 / cqm=0 / deadzone=21,11 / fast_pskip=1 / chroma_qp_offset=-2 / threads=12 / lookahead_threads=2 / sliced_threads=0 / nr=0 / decimate=1 / interlaced=0 / bluray_compat=0 / constrained_intra=0 / bframes=8 / b_pyramid=2 / b_adapt=2 / b_bias=0 / direct=3 / weightb=1 / open_gop=0 / weightp=2 / keyint=250 / keyint_min=24 / scenecut=40 / intra_refresh=0 / rc_lookahead=60 / rc=2pass / mbtree=1 / bitrate=11109 / ratetol=1.0 / qcomp=0.60 / qpmin=0 / qpmax=69 / qpstep=4 / cplxblur=20.0 / qblur=0.5 / ip_ratio=1.40 / aq=1:1.00
  24. Default                                  : Yes
  25. Forced                                   : No
  26. _STATISTICS_WRITING_APP                  : mkvmerge v7.0.0 (\'Where We Going\') 64bit built on Jun 21 2014 23:29:08
  27. _STATISTICS_WRITING_DATE_UTC             : 2014-08-28 10:25:19
  28. _STATISTICS_TAGS                         : BPS DURATION NUMBER_OF_FRAMES NUMBER_OF_BYTES
  29. DURATION                                 : 01:34:26.459000000
  30. NUMBER_OF_FRAMES                         : 135995
  31. NUMBER_OF_BYTES                          : 7867021222

  32. Audio #1
  33. ID                                       : 2
  34. Format                                   : DTS
  35. Format/Info                              : Digital Theater Systems
  36. Mode                                     : 16
  37. Format settings, Endianness              : Big
  38. Codec ID                                 : A_DTS
  39. Duration                                 : 1h 34mn
  40. Bit rate mode                            : Constant
  41. Bit rate                                 : 1 509 Kbps
  42. Channel(s)                               : 6 channels
  43. Channel positions                        : Front: L C R, Side: L R, LFE
  44. Sampling rate                            : 48.0 KHz
  45. Bit depth                                : 24 bits
  46. Compression mode                         : Lossy
  47. Stream size                              : 1 019 MiB (11%)
  48. Language                                 : German
  49. Default                                  : Yes
  50. Forced                                   : No

  51. Audio #2
  52. ID                                       : 3
  53. Format                                   : AC-3
  54. Format/Info                              : Audio Coding 3
  55. Mode extension                           : CM (complete main)
  56. Format settings, Endianness              : Big
  57. Codec ID                                 : A_AC3
  58. Duration                                 : 1h 34mn
  59. Bit rate mode                            : Constant
  60. Bit rate                                 : 640 Kbps
  61. Channel(s)                               : 1 channel
  62. Channel positions                        : Front: C
  63. Sampling rate                            : 48.0 KHz
  64. Bit depth                                : 16 bits
  65. Compression mode                         : Lossy
  66. Stream size                              : 432 MiB (5%)
  67. Language                                 : English
  68. Default                                  : No
  69. Forced                                   : No

  70. Text #1
  71. ID                                       : 4
  72. Format                                   : UTF-8
  73. Codec ID                                 : S_TEXT/UTF8
  74. Codec ID/Info                            : UTF-8 Plain Text
  75. Language                                 : English
  76. Default                                  : Yes
  77. Forced                                   : No

  78. Text #2
  79. ID                                       : 5
  80. Format                                   : UTF-8
  81. Codec ID                                 : S_TEXT/UTF8
  82. Codec ID/Info                            : UTF-8 Plain Text
  83. Title                                    : Forced
  84. Language                                 : English
  85. Default                                  : No
  86. Forced                                   : No

  87. Menu
  88. 00:00:00.000                             : en:00:00:00.000
  89. 00:09:45.917                             : en:00:09:45.917
  90. 00:13:34.208                             : en:00:13:34.208
  91. 00:18:50.167                             : en:00:18:50.167
  92. 00:26:07.000                             : en:00:26:07.000
  93. 00:32:31.750                             : en:00:32:31.750
  94. 00:39:33.000                             : en:00:39:33.000
  95. 00:47:53.625                             : en:00:47:53.625
  96. 00:58:41.875                             : en:00:58:41.875
  97. 01:09:47.042                             : en:01:09:47.042
  98. 01:14:20.333                             : en:01:14:20.333
  99. 01:22:48.292                             : en:01:22:48.292
复制代码

复制代码

阿基尔天主的愤慨/天谴 Aguirre.the.Wrath.of.God.1972.1080p.BluRay.x264-PHOBOS 8.86GB-2.jpg





回复

使用道具 举报

懒得打字嘛,点击右侧快捷回复 【右侧内容,后台自定义】
您需要登录后才可以回帖 登录 | 立即注册

本版积分规则

QQ|Archiver|手机版|小黑屋|中国高清网 |网站地图

GMT+8, 2018-12-14 19:53 , Processed in 0.122950 second(s), 41 queries .

Powered by HDchina X3.4

Copyright 2017-2018©HDchina.All right reserved

返回顶部 联系我们