你所知道的4K资源这里全部都有 4K电影 | 4K视频 | 4K壁纸 | 4K MV 怎么播放4K视频 | 4K电视演示片

教你玩转4K私人与家庭影院存储 NAS组装 | 黑群辉 家庭/影院Nas论坛

4K家庭影院信号源与视频设备知识 4K蓝光高清播放机 - 那个品牌好? 4K投影机论坛 | 4K电视机论坛

手把手教你搭建属于自己的家庭影院 4K家庭影院案例 | 家庭影院音频 4K家庭影院论坛

查看: 25|回复: 0

[冒险片] 阿基尔上帝的愤怒/天谴 Aguirre.the.Wrath.of.God.1972.1080p.BluRay.x264-PHOBOS 8.86GB

[复制链接]

级别:资源管理组

UID
1
注册时间
2017-10-20
最后登录
2018-10-22
听众
0
收听
0
主题
71065
蓝光币
91706 枚
贡献
139966 点
发表于 2018-10-12 01:45:25 | 显示全部楼层 |阅读模式

阿基尔天主的愤慨/天谴 Aguirre.the.Wrath.of.God.1972.1080p.BluRay.x264-PHOBOS 8.86GB-1.jpg
◎译  名 阿基尔,天主的愤慨/天谴/阿奎尔,天主的愤慨/阿吉尔,天主的愤慨/三侠屠龙
◎片  名 Aguirre, der Zorn Gottes
◎年  代 1972
◎产  地 西德
◎类  别 冒险/列传/剧情/历史
◎语  言 德语
◎上映日期 1972-12-29
◎IMDb评分  8.0/10 from 44,778 users
◎IMDb链接  http://www.imdb.com/title/tt0068182/
◎豆瓣评分 8.2/10 from 3,651 users
◎豆瓣链接 https://movie.douban.com/subject/1306002/
◎片  长 93 分钟
◎导  演 沃纳·赫尔佐格 Werner Herzog
◎主  演 克劳斯·金斯基 Klaus Kinski
      彼得·贝尔林 Peter Berling
      海伦娜·罗霍 Helena Rojo
      鲁伊·古雷拉 Ruy Guerra
      丹尼尔·阿德斯 Daniel Ades

◎简  介

  16世纪在印加帝国扑灭后,一支西班牙征服者组成探险队,从秘鲁山脉南下至亚马逊河寻觅黄金和财富。他们很快碰到了麻烦和危险,而阿奎尔,这个粗鲁并贪心的人成为了他们的魁首。他可以率领他们获得财富,还是将他们领向灭亡?在此进程中,对西班牙的虔诚承受着考验,对权利的争取也相继发生……
  • Video
  • ID                                       : 1
  • Format                                   : AVC
  • Format/Info                              : Advanced Video Codec
  • Format profile                           : [email protected]
  • Format settings, CABAC                   : Yes
  • Format settings, ReFrames                : 4 frames
  • Codec ID                                 : V_MPEG4/ISO/AVC
  • Duration                                 : 1h 34mn
  • Bit rate                                 : 11.1 Mbps
  • Width                                    : 1 440 pixels
  • Height                                   : 1 080 pixels
  • Display aspect ratio                     : 4:3
  • Frame rate mode                          : Constant
  • Frame rate                               : 24.000 fps
  • Color space                              : YUV
  • Chroma subsampling                       : 4:2:0
  • Bit depth                                : 8 bits
  • Scan type                                : Progressive
  • Bits/(Pixel*Frame)                       : 0.298
  • Stream size                              : 7.15 GiB (82%)
  • Writing library                          : x264 core 142 r2479M dd79a61
  • Encoding settings                        : cabac=1 / ref=4 / deblock=1:0:0 / analyse=0x3:0x133 / me=umh / subme=10 / psy=1 / psy_rd=1.00:0.00 / mixed_ref=1 / me_range=24 / chroma_me=1 / trellis=2 / 8x8dct=1 / cqm=0 / deadzone=21,11 / fast_pskip=1 / chroma_qp_offset=-2 / threads=12 / lookahead_threads=2 / sliced_threads=0 / nr=0 / decimate=1 / interlaced=0 / bluray_compat=0 / constrained_intra=0 / bframes=8 / b_pyramid=2 / b_adapt=2 / b_bias=0 / direct=3 / weightb=1 / open_gop=0 / weightp=2 / keyint=250 / keyint_min=24 / scenecut=40 / intra_refresh=0 / rc_lookahead=60 / rc=2pass / mbtree=1 / bitrate=11109 / ratetol=1.0 / qcomp=0.60 / qpmin=0 / qpmax=69 / qpstep=4 / cplxblur=20.0 / qblur=0.5 / ip_ratio=1.40 / aq=1:1.00
  • Default                                  : Yes
  • Forced                                   : No
  • _STATISTICS_WRITING_APP                  : mkvmerge v7.0.0 (\'Where We Going\') 64bit built on Jun 21 2014 23:29:08
  • _STATISTICS_WRITING_DATE_UTC             : 2014-08-28 10:25:19
  • _STATISTICS_TAGS                         : BPS DURATION NUMBER_OF_FRAMES NUMBER_OF_BYTES
  • DURATION                                 : 01:34:26.459000000
  • NUMBER_OF_FRAMES                         : 135995
  • NUMBER_OF_BYTES                          : 7867021222
  • Audio #1
  • ID                                       : 2
  • Format                                   : DTS
  • Format/Info                              : Digital Theater Systems
  • Mode                                     : 16
  • Format settings, Endianness              : Big
  • Codec ID                                 : A_DTS
  • Duration                                 : 1h 34mn
  • Bit rate mode                            : Constant
  • Bit rate                                 : 1 509 Kbps
  • Channel(s)                               : 6 channels
  • Channel positions                        : Front: L C R, Side: L R, LFE
  • Sampling rate                            : 48.0 KHz
  • Bit depth                                : 24 bits
  • Compression mode                         : Lossy
  • Stream size                              : 1 019 MiB (11%)
  • Language                                 : German
  • Default                                  : Yes
  • Forced                                   : No
  • Audio #2
  • ID                                       : 3
  • Format                                   : AC-3
  • Format/Info                              : Audio Coding 3
  • Mode extension                           : CM (complete main)
  • Format settings, Endianness              : Big
  • Codec ID                                 : A_AC3
  • Duration                                 : 1h 34mn
  • Bit rate mode                            : Constant
  • Bit rate                                 : 640 Kbps
  • Channel(s)                               : 1 channel
  • Channel positions                        : Front: C
  • Sampling rate                            : 48.0 KHz
  • Bit depth                                : 16 bits
  • Compression mode                         : Lossy
  • Stream size                              : 432 MiB (5%)
  • Language                                 : English
  • Default                                  : No
  • Forced                                   : No
  • Text #1
  • ID                                       : 4
  • Format                                   : UTF-8
  • Codec ID                                 : S_TEXT/UTF8
  • Codec ID/Info                            : UTF-8 Plain Text
  • Language                                 : English
  • Default                                  : Yes
  • Forced                                   : No
  • Text #2
  • ID                                       : 5
  • Format                                   : UTF-8
  • Codec ID                                 : S_TEXT/UTF8
  • Codec ID/Info                            : UTF-8 Plain Text
  • Title                                    : Forced
  • Language                                 : English
  • Default                                  : No
  • Forced                                   : No
  • Menu
  • 00:00:00.000                             : en:00:00:00.000
  • 00:09:45.917                             : en:00:09:45.917
  • 00:13:34.208                             : en:00:13:34.208
  • 00:18:50.167                             : en:00:18:50.167
  • 00:26:07.000                             : en:00:26:07.000
  • 00:32:31.750                             : en:00:32:31.750
  • 00:39:33.000                             : en:00:39:33.000
  • 00:47:53.625                             : en:00:47:53.625
  • 00:58:41.875                             : en:00:58:41.875
  • 01:09:47.042                             : en:01:09:47.042
  • 01:14:20.333                             : en:01:14:20.333
  • 01:22:48.292                             : en:01:22:48.292

复制代码

阿基尔天主的愤慨/天谴 Aguirre.the.Wrath.of.God.1972.1080p.BluRay.x264-PHOBOS 8.86GB-2.jpg





Aguirre.the.Wrath.of.God.1972.1080p.BluRay.x264-PHOBOS.torrent (177.87 KB, 下载次数: 0, 售价: 2 枚蓝光币)
回复

使用道具 举报

您需要登录后才可以回帖 登录 | 立即注册

本版积分规则

QQ|Archiver|手机版|小黑屋|HDchina论坛 |网站地图

GMT+8, 2018-10-23 02:10 , Processed in 0.186325 second(s), 42 queries .

Powered by Discuz! X3.4

© 2001-2017 Comsenz Inc.

返回顶部 联系我们