你所知道的4K资源这里全部都有 4K电影 | 4K视频 | 4K壁纸 | 4K MV 怎么播放4K视频 | 4K电视演示片

教你玩转4K私人与家庭影院存储 NAS组装 | 黑群辉 家庭/影院Nas论坛

4K家庭影院信号源与视频设备知识 4K蓝光高清播放机 - 那个品牌好? 4K投影机论坛 | 4K电视机论坛

手把手教你搭建属于自己的家庭影院 4K家庭影院案例 | 家庭影院音频 4K家庭影院论坛

查看: 156|回复: 2

[科幻片] 人类清除计划4/杀戮元年 The.First.Purge.2018.1080p.BluRay.REMUX.AVC.DTS-X.7.1-FGT 24.45GB

[复制链接]

 成长值: 130

级别:资源管理组

UID
1
注册时间
2017-10-20
最后登录
2019-1-22
听众
0
收听
0
主题
73996
蓝光币
116842 枚
贡献
143805 点
发表于 2018-9-25 17:07:35 | 显示全部楼层 |阅读模式

人类断根计划4/杀戮元年 The.First.Purge.2018.1080p.BluRay.REMUX.AVC.DTS-X.7.1-FGT 24.45GB-1.jpg
◎译  名 人类断根计划4/杀戮元年(台)/国定杀戮日:屠亡前传(港)
◎片  名 The First Purge
◎年  代 2018
◎产  地 美国
◎类  别 科幻/犯罪/惊悚
◎语  言 英语
◎上映日期 2018-07-04(美国)
◎IMDb评分  5.2/10 from 16,275 users
◎IMDb链接  http://www.imdb.com/title/tt6133466/
◎豆瓣评分 5.3/10 from 2,112 users
◎豆瓣链接 https://movie.douban.com/subject/26905717/
◎片  长 98分钟
◎导  演 杰拉德·麦克穆雷 Gerard McMurray
◎主  演 伊兰·诺尔 Y'lan Noel
      莱克斯·斯科特·戴维斯 Lex Scott Davis
      乔瓦恩·韦德 Joivan Wade
      马加 Mugga
      帕奇·德拉奇 Patch Darragh
      玛丽莎·托梅 Marisa Tomei
      劳伦·维勒斯 Lauren Vélez
      克丽丝滕·索利斯 Kristen Solis
      莫·麦克雷 Mo McRae
      史蒂夫·哈里斯 Steve Harris
      米切尔·爱德华兹 Mitchell Edwards
      伊恩·布莱克曼 Ian Blackman
      梅罗妮·迪亚兹 Melonie Diaz
      迪德尔?古德温 Deidre Goodwin
      丽维·陈 Levy Tran
      阿兰·皮特鲁塞泽维斯基 Alan Pietruszewski
      洛根·克劳福德 Logan Crawford
      约翰·麦克金蒂 John P. McGinty

◎简  介

  电影聚焦于致使断根计划发生的缘由,报告了由于生齿收缩,社会题目加重,一个名为New Founding Fathers of America的构造停止了一种社会学理论测试,即在某一孤立的社区停止为时一晚的宣泄、进犯、侵犯,促进社区人们之间的相互残杀。这一制度在全美推行,一时候马路街道都成为了杀戮的疆场。故事的荒诞性吸引了大量观众,第一年的杀戮日就要来临,恶魔们都已经预备好了。

  1. Video
  2. ID                                       : 1
  3. Format                                   : AVC
  4. Format/Info                              : Advanced Video Codec
  5. Format profile                           : [url=/cdn-cgi/l/email-protection][email protected][/url]
  6. Format settings                          : CABAC / 4 Ref Frames
  7. Format settings, CABAC                   : Yes
  8. Format settings, ReFrames                : 4 frames
  9. Codec ID                                 : V_MPEG4/ISO/AVC
  10. Duration                                 : 1 h 37 min
  11. Bit rate mode                            : Variable
  12. Bit rate                                 : 25.8 Mb/s
  13. Maximum bit rate                         : 27.0 Mb/s
  14. Width                                    : 1 920 pixels
  15. Height                                   : 1 080 pixels
  16. Display aspect ratio                     : 16:9
  17. Frame rate mode                          : Constant
  18. Frame rate                               : 23.976 (24000/1001) FPS
  19. Color space                              : YUV
  20. Chroma subsampling                       : 4:2:0
  21. Bit depth                                : 8 bits
  22. Scan type                                : Progressive
  23. Bits/(Pixel*Frame)                       : 0.520
  24. Stream size                              : 17.6 GiB (72%)
  25. Title                                    : The.First.Purge.2018.1080p.BluRay.REMUX.AVC.DTS-X.7.1-FGT
  26. Language                                 : English
  27. Default                                  : No
  28. Forced                                   : No

  29. Audio #1
  30. ID                                       : 2
  31. Format                                   : DTS
  32. Format/Info                              : Digital Theater Systems
  33. Format profile                           : X / MA / Core
  34. Codec ID                                 : A_DTS
  35. Duration                                 : 1 h 37 min
  36. Bit rate mode                            : Variable / Variable / Constant
  37. Bit rate                                 : 6 816 kb/s / 6 816 kb/s / 1 509 kb/s
  38. Channel(s)                               : Object Based / 8 channels / 6 channels
  39. Channel positions                        : Object Based / Front: L C R, Side: L R, Back: L R, LFE / Front: L C R, Side: L R, LFE
  40. Sampling rate                            :  / 48.0 kHz / 48.0 kHz
  41. Frame rate                               : 93.750 FPS (512 SPF)
  42. Bit depth                                :  / 24 bits / 24 bits
  43. Compression mode                         :  / Lossless / Lossy
  44. Stream size                              : 4.64 GiB (19%)
  45. Title                                    : The.First.Purge.2018.1080p.BluRay.REMUX.AVC.DTS-X.7.1-FGT
  46. Language                                 : English
  47. Default                                  : Yes
  48. Forced                                   : No

  49. Audio #2
  50. ID                                       : 3
  51. Format                                   : DTS
  52. Format/Info                              : Digital Theater Systems
  53. Codec ID                                 : A_DTS
  54. Duration                                 : 1 h 37 min
  55. Bit rate mode                            : Constant
  56. Bit rate                                 : 1 509 kb/s
  57. Channel(s)                               : 6 channels
  58. Channel positions                        : Front: L C R, Side: L R, LFE
  59. Sampling rate                            : 48.0 kHz
  60. Frame rate                               : 93.750 FPS (512 SPF)
  61. Bit depth                                : 24 bits
  62. Compression mode                         : Lossy
  63. Stream size                              : 1.03 GiB (4%)
  64. Title                                    : The.First.Purge.2018.1080p.BluRay.REMUX.AVC.DTS-X.7.1-FGT
  65. Language                                 : English
  66. Default                                  : No
  67. Forced                                   : No

  68. Audio #3
  69. ID                                       : 4
  70. Format                                   : DTS
  71. Format/Info                              : Digital Theater Systems
  72. Codec ID                                 : A_DTS
  73. Duration                                 : 1 h 37 min
  74. Bit rate mode                            : Constant
  75. Bit rate                                 : 768 kb/s
  76. Channel(s)                               : 6 channels
  77. Channel positions                        : Front: L C R, Side: L R, LFE
  78. Sampling rate                            : 48.0 kHz
  79. Frame rate                               : 93.750 FPS (512 SPF)
  80. Bit depth                                : 24 bits
  81. Compression mode                         : Lossy
  82. Stream size                              : 535 MiB (2%)
  83. Title                                    : The.First.Purge.2018.1080p.BluRay.REMUX.AVC.DTS-X.7.1-FGT
  84. Language                                 : Spanish
  85. Default                                  : No
  86. Forced                                   : No

  87. Audio #4
  88. ID                                       : 5
  89. Format                                   : DTS
  90. Format/Info                              : Digital Theater Systems
  91. Codec ID                                 : A_DTS
  92. Duration                                 : 1 h 37 min
  93. Bit rate mode                            : Constant
  94. Bit rate                                 : 768 kb/s
  95. Channel(s)                               : 6 channels
  96. Channel positions                        : Front: L C R, Side: L R, LFE
  97. Sampling rate                            : 48.0 kHz
  98. Frame rate                               : 93.750 FPS (512 SPF)
  99. Bit depth                                : 24 bits
  100. Compression mode                         : Lossy
  101. Stream size                              : 535 MiB (2%)
  102. Title                                    : The.First.Purge.2018.1080p.BluRay.REMUX.AVC.DTS-X.7.1-FGT
  103. Language                                 : French
  104. Default                                  : No
  105. Forced                                   : No

  106. Audio #5
  107. ID                                       : 6
  108. Format                                   : AC-3
  109. Format/Info                              : Audio Coding 3
  110. Codec ID                                 : A_AC3
  111. Duration                                 : 1 h 37 min
  112. Bit rate mode                            : Constant
  113. Bit rate                                 : 192 kb/s
  114. Channel(s)                               : 2 channels
  115. Channel positions                        : Front: L R
  116. Sampling rate                            : 48.0 kHz
  117. Frame rate                               : 31.250 FPS (1536 SPF)
  118. Bit depth                                : 16 bits
  119. Compression mode                         : Lossy
  120. Stream size                              : 134 MiB (1%)
  121. Title                                    : The.First.Purge.2018.1080p.BluRay.REMUX.AVC.DTS-X.7.1-FGT
  122. Language                                 : English
  123. Service kind                             : Complete Main
  124. Default                                  : No
  125. Forced                                   : No

  126. Text #1
  127. ID                                       : 7
  128. Format                                   : PGS
  129. Muxing mode                              : zlib
  130. Codec ID                                 : S_HDMV/PGS
  131. Codec ID/Info                            : Picture based subtitle format used on BDs/HD-DVDs
  132. Duration                                 : 1 h 33 min
  133. Bit rate                                 : 47.3 kb/s
  134. Count of elements                        : 2994
  135. Stream size                              : 31.5 MiB (0%)
  136. Title                                    : English-PGS
  137. Language                                 : English
  138. Default                                  : Yes
  139. Forced                                   : No

  140. Text #2
  141. ID                                       : 8
  142. Format                                   : PGS
  143. Muxing mode                              : zlib
  144. Codec ID                                 : S_HDMV/PGS
  145. Codec ID/Info                            : Picture based subtitle format used on BDs/HD-DVDs
  146. Duration                                 : 1 h 36 min
  147. Bit rate                                 : 33.2 kb/s
  148. Count of elements                        : 2327
  149. Stream size                              : 22.9 MiB (0%)
  150. Title                                    : Spanish-PGS
  151. Language                                 : Spanish
  152. Default                                  : No
  153. Forced                                   : No

  154. Text #3
  155. ID                                       : 9
  156. Format                                   : PGS
  157. Muxing mode                              : zlib
  158. Codec ID                                 : S_HDMV/PGS
  159. Codec ID/Info                            : Picture based subtitle format used on BDs/HD-DVDs
  160. Duration                                 : 1 h 36 min
  161. Bit rate                                 : 33.0 kb/s
  162. Count of elements                        : 2476
  163. Stream size                              : 22.7 MiB (0%)
  164. Title                                    : French-PGS
  165. Language                                 : French
  166. Default                                  : No
  167. Forced                                   : No

  168. Text #4
  169. ID                                       : 10
  170. Format                                   : PGS
  171. Muxing mode                              : zlib
  172. Codec ID                                 : S_HDMV/PGS
  173. Codec ID/Info                            : Picture based subtitle format used on BDs/HD-DVDs
  174. Duration                                 : 1 h 35 min
  175. Bit rate                                 : 389 b/s
  176. Count of elements                        : 34
  177. Stream size                              : 272 KiB (0%)
  178. Title                                    : Spanish-FORCED-PGS
  179. Language                                 : Spanish
  180. Default                                  : No
  181. Forced                                   : No

  182. Text #5
  183. ID                                       : 11
  184. Format                                   : PGS
  185. Muxing mode                              : zlib
  186. Codec ID                                 : S_HDMV/PGS
  187. Codec ID/Info                            : Picture based subtitle format used on BDs/HD-DVDs
  188. Duration                                 : 1 h 35 min
  189. Bit rate                                 : 641 b/s
  190. Count of elements                        : 36
  191. Stream size                              : 448 KiB (0%)
  192. Title                                    : French-FORCED-PGS
  193. Language                                 : French
  194. Default                                  : No
  195. Forced                                   : No

  196. Menu
  197. 00:00:00.000                             : en:Chapter 01
  198. 00:06:25.635                             : en:Chapter 02
  199. 00:11:59.802                             : en:Chapter 03
  200. 00:16:18.769                             : en:Chapter 04
  201. 00:21:18.110                             : en:Chapter 05
  202. 00:25:56.388                             : en:Chapter 06
  203. 00:30:54.143                             : en:Chapter 07
  204. 00:35:31.212                             : en:Chapter 08
  205. 00:38:41.110                             : en:Chapter 09
  206. 00:43:02.454                             : en:Chapter 10
  207. 00:48:34.411                             : en:Chapter 11
  208. 00:53:35.086                             : en:Chapter 12
  209. 00:55:59.564                             : en:Chapter 13
  210. 00:59:13.049                             : en:Chapter 14
  211. 01:05:25.713                             : en:Chapter 15
  212. 01:09:31.792                             : en:Chapter 16
  213. 01:13:23.732                             : en:Chapter 17
  214. 01:19:47.532                             : en:Chapter 18
  215. 01:24:50.043                             : en:Chapter 19
  216. 01:29:54.931                             : en:Chapter 20
复制代码

复制代码

人类断根计划4/杀戮元年 The.First.Purge.2018.1080p.BluRay.REMUX.AVC.DTS-X.7.1-FGT 24.45GB-2.png 人类断根计划4/杀戮元年 The.First.Purge.2018.1080p.BluRay.REMUX.AVC.DTS-X.7.1-FGT 24.45GB-3.png 人类断根计划4/杀戮元年 The.First.Purge.2018.1080p.BluRay.REMUX.AVC.DTS-X.7.1-FGT 24.45GB-4.png





回复

使用道具 举报

级别:群众演员 Lv.3

UID
1718
注册时间
2018-2-26
最后登录
2019-1-21
听众
2
收听
0
主题
0
蓝光币
131 枚
贡献
0 点
发表于 2018-9-27 15:46:42 | 显示全部楼层
thx for hsaring
回复

使用道具 举报

级别:专业龙套 Lv.4

UID
4064
注册时间
2018-5-27
最后登录
2019-1-22
听众
3
收听
0
主题
0
蓝光币
2 枚
贡献
0 点
发表于 2018-10-6 17:34:21 | 显示全部楼层
感谢分享!
回复

使用道具 举报

懒得打字嘛,点击右侧快捷回复 【右侧内容,后台自定义】
您需要登录后才可以回帖 登录 | 立即注册

本版积分规则

QQ|Archiver|手机版|小黑屋|中国高清网 |网站地图

GMT+8, 2019-1-23 01:38 , Processed in 0.168533 second(s), 40 queries .

Powered by HDchina X3.4

Copyright 2017-2018©HDchina.All right reserved

返回顶部 联系我们