你所知道的4K资源这里全部都有 4K电影 | 4K视频 | 4K壁纸 | 4K MV 怎么播放4K视频 | 4K电视演示片

教你玩转4K私人与家庭影院存储 NAS组装 | 黑群辉 家庭/影院Nas论坛

4K家庭影院信号源与视频设备知识 4K蓝光高清播放机 - 那个品牌好? 4K投影机论坛 | 4K电视机论坛

手把手教你搭建属于自己的家庭影院 4K家庭影院案例 | 家庭影院音频 4K家庭影院论坛

查看: 144|回复: 1

[科幻片] 喋血外星人 Alien.Siege.2018.1080p.BluRay.REMUX.AVC.DTS-HD.MA.5.1-FGT 17.66GB

[复制链接]

 成长值: 710

级别:资源管理组

注册时间
2017-10-20
最后登录
2019-3-22
听众
0
收听
0
主题
76497
蓝光币
134729 枚
贡献
146306 点
发表于 2018-9-16 10:21:44 | 显示全部楼层 |阅读模式

蹀血外星人 Alien.Siege.2018.1080p.BluRay.REMUX.AVC.DTS-HD.MA.5.1-FGT 17.66GB-1.jpg
◎译  名 蹀血外星人
◎片  名 Alien Siege
◎年  代 2018
◎产  地 美国
◎类  别 科幻
◎语  言 英语
◎上映日期 2018-07-22(英国电视首映)/2018-07-31(美国收集)
◎豆瓣评分 /10 from 0 users
◎豆瓣链接 https://movie.douban.com/subject/30203443/
◎片  长 85分钟
◎导  演 Rob Pallatina
◎主  演 Christina Licciardi
      Matthew Pohlkamp

◎简  介

  After an alien spacecraft destroys Washington, D.C., the residents of a small town must fight off a unit of alien soldiers on the hunt for the President of the United States and the mysterious device he's carrying after his escape chopper crash lands nearby.

  1. Video
  2. ID                                       : 1
  3. Format                                   : AVC
  4. Format/Info                              : Advanced Video Codec
  5. Format profile                           : [url=/cdn-cgi/l/email-protection][email protected][/url]
  6. Format settings                          : CABAC / 4 Ref Frames
  7. Format settings, CABAC                   : Yes
  8. Format settings, ReFrames                : 4 frames
  9. Codec ID                                 : V_MPEG4/ISO/AVC
  10. Duration                                 : 1 h 25 min
  11. Bit rate mode                            : Variable
  12. Bit rate                                 : 24.0 Mb/s
  13. Maximum bit rate                         : 34.0 Mb/s
  14. Width                                    : 1 920 pixels
  15. Height                                   : 1 080 pixels
  16. Display aspect ratio                     : 16:9
  17. Frame rate mode                          : Constant
  18. Frame rate                               : 23.976 (24000/1001) FPS
  19. Standard                                 : NTSC
  20. Color space                              : YUV
  21. Chroma subsampling                       : 4:2:0
  22. Bit depth                                : 8 bits
  23. Scan type                                : Progressive
  24. Bits/(Pixel*Frame)                       : 0.483
  25. Stream size                              : 14.3 GiB (81%)
  26. Title                                    : Alien.Siege.2018.1080p.BluRay.REMUX.AVC.DTS-HD.MA.5.1-FGT
  27. Language                                 : English
  28. Default                                  : No
  29. Forced                                   : No
  30. Color range                              : Limited
  31. Color primaries                          : BT.709
  32. Transfer characteristics                 : BT.709
  33. Matrix coefficients                      : BT.709

  34. Audio #1
  35. ID                                       : 2
  36. Format                                   : DTS
  37. Format/Info                              : Digital Theater Systems
  38. Format profile                           : MA / Core
  39. Codec ID                                 : A_DTS
  40. Duration                                 : 1 h 25 min
  41. Bit rate mode                            : Variable / Constant
  42. Bit rate                                 : 4 092 kb/s / 1 509 kb/s
  43. Channel(s)                               : 6 channels
  44. Channel positions                        : Front: L C R, Side: L R, LFE
  45. Sampling rate                            : 48.0 kHz
  46. Frame rate                               : 93.750 FPS (512 SPF)
  47. Bit depth                                : 24 bits
  48. Compression mode                         : Lossless / Lossy
  49. Stream size                              : 2.44 GiB (14%)
  50. Title                                    : Alien.Siege.2018.1080p.BluRay.REMUX.AVC.DTS-HD.MA.5.1-FGT
  51. Language                                 : English
  52. Default                                  : Yes
  53. Forced                                   : No

  54. Audio #2
  55. ID                                       : 3
  56. Format                                   : DTS
  57. Format/Info                              : Digital Theater Systems
  58. Codec ID                                 : A_DTS
  59. Duration                                 : 1 h 25 min
  60. Bit rate mode                            : Constant
  61. Bit rate                                 : 1 509 kb/s
  62. Channel(s)                               : 6 channels
  63. Channel positions                        : Front: L C R, Side: L R, LFE
  64. Sampling rate                            : 48.0 kHz
  65. Frame rate                               : 93.750 FPS (512 SPF)
  66. Bit depth                                : 24 bits
  67. Compression mode                         : Lossy
  68. Stream size                              : 922 MiB (5%)
  69. Title                                    : Alien.Siege.2018.1080p.BluRay.REMUX.AVC.DTS-HD.MA.5.1-FGT
  70. Language                                 : English
  71. Default                                  : No
  72. Forced                                   : No

  73. Menu
  74. 00:00:00.000                             : en:Chapter 01
  75. 00:10:00.474                             : en:Chapter 02
  76. 00:20:01.200                             : en:Chapter 03
  77. 00:30:01.800                             : en:Chapter 04
  78. 00:40:02.400                             : en:Chapter 05
  79. 00:50:03.000                             : en:Chapter 06
  80. 01:00:03.600                             : en:Chapter 07
  81. 01:10:04.116                             : en:Chapter 08
  82. 01:20:04.549                             : en:Chapter 09
复制代码

复制代码

蹀血外星人 Alien.Siege.2018.1080p.BluRay.REMUX.AVC.DTS-HD.MA.5.1-FGT 17.66GB-2.png 蹀血外星人 Alien.Siege.2018.1080p.BluRay.REMUX.AVC.DTS-HD.MA.5.1-FGT 17.66GB-3.png 蹀血外星人 Alien.Siege.2018.1080p.BluRay.REMUX.AVC.DTS-HD.MA.5.1-FGT 17.66GB-4.png





回复

使用道具 举报

级别:荣升主角 Lv.5

注册时间
2018-5-27
最后登录
2019-3-21
听众
4
收听
0
主题
0
蓝光币
17 枚
贡献
0 点
发表于 2018-9-23 09:42:51 | 显示全部楼层
感谢分享!
回复

使用道具 举报

懒得打字嘛,点击右侧快捷回复 【右侧内容,后台自定义】
您需要登录后才可以回帖 登录 | 立即注册

本版积分规则

QQ|Archiver|手机版|小黑屋|中国高清网 |网站地图

GMT+8, 2019-3-22 09:51 , Processed in 0.138388 second(s), 41 queries .

Powered by HDchina X3.4

Copyright 2017-2018©HDchina.All right reserved

返回顶部 联系我们