你所知道的4K资源这里全部都有 4K电影 | 4K视频 | 4K壁纸 | 4K MV 怎么播放4K视频 | 4K电视演示片

教你玩转4K私人与家庭影院存储 NAS组装 | 黑群辉 家庭/影院Nas论坛

4K家庭影院信号源与视频设备知识 4K蓝光高清播放机 - 那个品牌好? 4K投影机论坛 | 4K电视机论坛

手把手教你搭建属于自己的家庭影院 4K家庭影院案例 | 家庭影院音频 4K家庭影院论坛

查看: 82|回复: 3

[科幻片] 禁地大战 Spacehunter.Adventures.in.the.Forbidden.Zone.1983.1080p.BluRay.REMUX.MPEG-2.LPCM.2.0-FGT 19.79GB

[复制链接]

 成长值: 130

级别:资源管理组

UID
1
注册时间
2017-10-20
最后登录
2019-1-22
听众
0
收听
0
主题
73996
蓝光币
116842 枚
贡献
143805 点
发表于 2018-9-16 10:18:50 | 显示全部楼层 |阅读模式

禁地大战 Spacehunter.Adventures.in.the.Forbidden.Zone.1983.1080p.BluRay.REMUX.MPEG-2.LPCM.2.0-FGT 19.79GB-1.jpg
◎译  名 禁地大战
◎片  名 Spacehunter: Adventures in the Forbidden Zone
◎年  代 1983
◎产  地 加拿大/美国
◎类  别 冒险/科幻
◎语  言 英语
◎上映日期 1983-05-20
◎豆瓣评分 /10 from 0 users
◎豆瓣链接 https://movie.douban.com/subject/1302422/
◎片  长 90 分钟
◎导  演 拉蒙特·约翰逊 Lamont Johnson
◎主  演 彼得·斯特劳斯 Peter Strauss
      莫利·林沃德 Molly Ringwald
      埃涅·赫德森 Ernie Hudson
      安德莉亚·马尔科维奇 Andrea Marcovicci
      哈罗德·雷米斯 Harold Ramis

◎简  介

  三个女人所驾驶的宇宙飞船发生题目,告急下降在银河系中一个名为「大地11号」的星球上,没想到,该星球遭到致命疾病肆虐,三个女人是以被当地的独裁者麦纳布(莫利.林沃德 饰)挟持。此时,「宇宙 猎人 」渥夫(彼得.史特罗斯 饰)驾驶着他的救济船展开行动,一路上他碰到了很多危机的状态,还好都在 危在旦夕 之际平安脱身。随着危机 逐一 的化解,渥夫与独裁者麦纳布面临面的时辰越来越接近......他能否能匹敌这群邪恶的外星小怪物,将三名美男从禁地星球中救出来呢?此片不单有松散的行动排场、怪异的场景设想、创意实足的声音殊效,3D三维结果更使其活泼传神......

  1. Video
  2. ID                                       : 1
  3. Format                                   : MPEG Video
  4. Format version                           : Version 2
  5. Format profile                           : [url=/cdn-cgi/l/email-protection][email protected][/url]
  6. Format settings                          : BVOP
  7. Format settings, BVOP                    : Yes
  8. Format settings, Matrix                  : Default
  9. Format settings, GOP                     : M=3, N=12
  10. Codec ID                                 : V_MPEG2
  11. Codec ID/Info                            : MPEG 1 or 2 Video
  12. Duration                                 : 1 h 29 min
  13. Bit rate mode                            : Constant
  14. Bit rate                                 : 30.0 Mb/s
  15. Width                                    : 1 920 pixels
  16. Height                                   : 1 080 pixels
  17. Display aspect ratio                     : 1.000
  18. Original display aspect ratio            : 16:9
  19. Frame rate mode                          : Constant
  20. Frame rate                               : 23.976 (24000/1001) FPS
  21. Color space                              : YUV
  22. Chroma subsampling                       : 4:2:0
  23. Bit depth                                : 8 bits
  24. Scan type                                : Progressive
  25. Compression mode                         : Lossy
  26. Bits/(Pixel*Frame)                       : 0.603
  27. Time code of first frame                 : 00:00:00:00
  28. Time code source                         : Group of pictures header
  29. GOP, Open/Closed                         : Closed
  30. Stream size                              : 18.8 GiB (95%)
  31. Title                                    : Spacehunter.Adventures.in.the.Forbidden.Zone.1983.1080p.BluRay.REMUX.MPEG-2.LPCM.2.0-FGT
  32. Language                                 : English
  33. Default                                  : No
  34. Forced                                   : No

  35. Audio
  36. ID                                       : 2
  37. Format                                   : PCM
  38. Format settings                          : Little / Signed
  39. Codec ID                                 : A_PCM/INT/LIT
  40. Duration                                 : 1 h 29 min
  41. Bit rate mode                            : Constant
  42. Bit rate                                 : 1 536 kb/s
  43. Channel(s)                               : 2 channels
  44. Sampling rate                            : 48.0 kHz
  45. Frame rate                               : 30.000 FPS (1600 SPF)
  46. Bit depth                                : 16 bits
  47. Stream size                              : 987 MiB (5%)
  48. Title                                    : Spacehunter.Adventures.in.the.Forbidden.Zone.1983.1080p.BluRay.REMUX.MPEG-2.LPCM.2.0-FGT
  49. Language                                 : English
  50. Default                                  : Yes
  51. Forced                                   : No

  52. Text
  53. ID                                       : 3
  54. Format                                   : PGS
  55. Muxing mode                              : zlib
  56. Codec ID                                 : S_HDMV/PGS
  57. Codec ID/Info                            : Picture based subtitle format used on BDs/HD-DVDs
  58. Duration                                 : 1 h 26 min
  59. Bit rate                                 : 20.6 kb/s
  60. Count of elements                        : 2045
  61. Stream size                              : 12.7 MiB (0%)
  62. Title                                    : English-PGS
  63. Language                                 : English
  64. Default                                  : Yes
  65. Forced                                   : No

  66. Menu
  67. 00:00:00.083                             : en:Chapter 01
  68. 00:06:02.445                             : en:Chapter 02
  69. 00:12:41.343                             : en:Chapter 03
  70. 00:21:35.377                             : en:Chapter 04
  71. 00:27:17.218                             : en:Chapter 05
  72. 00:31:51.993                             : en:Chapter 06
  73. 00:39:56.477                             : en:Chapter 07
  74. 00:48:42.002                             : en:Chapter 08
  75. 00:54:29.349                             : en:Chapter 09
  76. 01:04:08.427                             : en:Chapter 10
  77. 01:17:55.754                             : en:Chapter 11
  78. 01:26:00.238                             : en:Chapter 12
复制代码

复制代码

禁地大战 Spacehunter.Adventures.in.the.Forbidden.Zone.1983.1080p.BluRay.REMUX.MPEG-2.LPCM.2.0-FGT 19.79GB-2.png 禁地大战 Spacehunter.Adventures.in.the.Forbidden.Zone.1983.1080p.BluRay.REMUX.MPEG-2.LPCM.2.0-FGT 19.79GB-3.png 禁地大战 Spacehunter.Adventures.in.the.Forbidden.Zone.1983.1080p.BluRay.REMUX.MPEG-2.LPCM.2.0-FGT 19.79GB-4.png





回复

使用道具 举报

级别:专业龙套 Lv.4

UID
4064
注册时间
2018-5-27
最后登录
2019-1-22
听众
3
收听
0
主题
0
蓝光币
2 枚
贡献
0 点
发表于 2018-9-23 09:41:30 | 显示全部楼层
感谢分享!
回复

使用道具 举报

级别:普通观众 Lv.2

UID
8514
注册时间
2018-10-17
最后登录
2018-11-21
听众
1
收听
0
主题
0
蓝光币
60 枚
贡献
0 点
发表于 2018-11-19 22:41:11 | 显示全部楼层
好看一部感人電影
回复

使用道具 举报

级别:普通观众 Lv.2

UID
8514
注册时间
2018-10-17
最后登录
2018-11-21
听众
1
收听
0
主题
0
蓝光币
60 枚
贡献
0 点
发表于 2018-11-19 22:41:44 | 显示全部楼层
好看一部感人電影
回复

使用道具 举报

懒得打字嘛,点击右侧快捷回复 【右侧内容,后台自定义】
您需要登录后才可以回帖 登录 | 立即注册

本版积分规则

QQ|Archiver|手机版|小黑屋|中国高清网 |网站地图

GMT+8, 2019-1-23 00:18 , Processed in 0.128941 second(s), 40 queries .

Powered by HDchina X3.4

Copyright 2017-2018©HDchina.All right reserved

返回顶部 联系我们